  0
SECTION
  2
HEADER
  9
$ACADVER
  1
AC1015
  9
$ACADMAINTVER
 70
    20
  9
$DWGCODEPAGE
  3
ANSI_1252
  9
$INSBASE
 10
0.0
 20
0.0
 30
0.0
  9
$EXTMIN
 10
1.000000000000000E+20
 20
1.000000000000000E+20
 30
1.000000000000000E+20
  9
$EXTMAX
 10
-1.000000000000000E+20
 20
-1.000000000000000E+20
 30
-1.000000000000000E+20
  9
$LIMMIN
 10
0
 20
0
  9
$LIMMAX
 10
420
 20
297
  9
$ORTHOMODE
 70
     0
  9
$REGENMODE
 70
     1
  9
$FILLMODE
 70
     1
  9
$QTEXTMODE
 70
     0
  9
$MIRRTEXT
 70
     0
  9
$LTSCALE
 40
1
  9
$ATTMODE
 70
     1
  9
$TEXTSIZE
 40
5
  9
$TRACEWID
 40
1.0
  9
$TEXTSTYLE
  7
Standard
  9
$CLAYER
  8
Sichtbare Körperkanten
  9
$CELTYPE
  6
ByLayer
  9
$CECOLOR
 62
   256
  9
$CELTSCALE
 40
1.0
  9
$DISPSILH
 70
     0
  9
$DIMSCALE
 40
1
  9
$DIMASZ
 40
2.5
  9
$DIMEXO
 40
0.625
  9
$DIMDLI
 40
3.75
  9
$DIMRND
 40
0
  9
$DIMDLE
 40
0
  9
$DIMEXE
 40
1.25
  9
$DIMTP
 40
0
  9
$DIMTM
 40
0
  9
$DIMTXT
 40
2.5
  9
$DIMCEN
 40
2.5
  9
$DIMTSZ
 40
0
  9
$DIMTOL
 70
     0
  9
$DIMLIM
 70
     0
  9
$DIMTIH
 70
     0
  9
$DIMTOH
 70
     0
  9
$DIMSE1
 70
     0
  9
$DIMSE2
 70
     0
  9
$DIMTAD
 70
     1
  9
$DIMZIN
 70
     8
  9
$DIMBLK
  1

  9
$DIMASO
 70
     1
  9
$DIMSHO
 70
     1
  9
$DIMPOST
  1
<>
  9
$DIMAPOST
  1
[]
  9
$DIMALT
 70
     0
  9
$DIMALTD
 70
     3
  9
$DIMALTF
 40
0.03937007874016
  9
$DIMLFAC
 40
1
  9
$DIMTOFL
 70
     1
  9
$DIMTVP
 40
0
  9
$DIMTIX
 70
     0
  9
$DIMSOXD
 70
     0
  9
$DIMSAH
 70
     0
  9
$DIMBLK1
  1

  9
$DIMBLK2
  1

  9
$DIMSTYLE
  2
ISO-25
  9
$DIMCLRD
 70
     0
  9
$DIMCLRE
 70
     0
  9
$DIMCLRT
 70
     0
  9
$DIMTFAC
 40
1
  9
$DIMGAP
 40
0.625
  9
$DIMJUST
 70
     0
  9
$DIMSD1
 70
     0
  9
$DIMSD2
 70
     0
  9
$DIMTOLJ
 70
     0
  9
$DIMTZIN
 70
     0
  9
$DIMALTZ
 70
     0
  9
$DIMALTTZ
 70
     0
  9
$DIMUPT
 70
     0
  9
$DIMDEC
 70
     2
  9
$DIMTDEC
 70
     2
  9
$DIMALTU
 70
     2
  9
$DIMALTTD
 70
     3
  9
$DIMTXSTY
  7
Standard
  9
$DIMAUNIT
 70
     0
  9
$DIMADEC
 70
     0
  9
$DIMALTRND
 40
0
  9
$DIMAZIN
 70
     0
  9
$DIMDSEP
 70
    44
  9
$DIMATFIT
 70
     3
  9
$DIMFRAC
 70
     0
  9
$DIMLDRBLK
  1

  9
$DIMLUNIT
 70
     2
  9
$DIMLWD
 70
    -2
  9
$DIMLWE
 70
    -2
  9
$DIMTMOVE
 70
     0
  9
$LUNITS
 70
     2
  9
$LUPREC
 70
     4
  9
$SKETCHINC
 40
1.0
  9
$FILLETRAD
 40
10
  9
$AUNITS
 70
     0
  9
$AUPREC
 70
     0
  9
$MENU
  1
.
  9
$ELEVATION
 40
0.0
  9
$PELEVATION
 40
0.0
  9
$THICKNESS
 40
0.0
  9
$LIMCHECK
 70
     0
  9
$CHAMFERA
 40
10
  9
$CHAMFERB
 40
10
  9
$CHAMFERC
 40
20
  9
$CHAMFERD
 40
0
  9
$SKPOLY
 70
     0
  9
$TDCREATE
 40
2455890.587745729
  9
$TDUCREATE
 40
2455890.546079062
  9
$TDUPDATE
 40
2455890.587938577
  9
$TDUUPDATE
 40
2455890.546271910
  9
$TDINDWG
 40
0.0001929630
  9
$TDUSRTIMER
 40
0.0001929630
  9
$USRTIMER
 70
     1
  9
$ANGBASE
 50
0.0
  9
$ANGDIR
 70
     0
  9
$PDMODE
 70
     0
  9
$PDSIZE
 40
5
  9
$PLINEWID
 40
0.0
  9
$SPLFRAME
 70
     0
  9
$SPLINETYPE
 70
     6
  9
$SPLINESEGS
 70
     8
  9
$HANDSEED
  5
130A
  9
$SURFTAB1
 70
     6
  9
$SURFTAB2
 70
     6
  9
$SURFTYPE
 70
     6
  9
$SURFU
 70
     6
  9
$SURFV
 70
     6
  9
$UCSBASE
  2

  9
$UCSNAME
  2

  9
$UCSORG
 10
0.0
 20
0.0
 30
0.0
  9
$UCSXDIR
 10
1.0
 20
0.0
 30
0.0
  9
$UCSYDIR
 10
0.0
 20
1.0
 30
0.0
  9
$UCSORTHOREF
  2

  9
$UCSORTHOVIEW
 70
     0
  9
$UCSORGTOP
 10
0.0
 20
0.0
 30
0.0
  9
$UCSORGBOTTOM
 10
0.0
 20
0.0
 30
0.0
  9
$UCSORGLEFT
 10
0.0
 20
0.0
 30
0.0
  9
$UCSORGRIGHT
 10
0.0
 20
0.0
 30
0.0
  9
$UCSORGFRONT
 10
0.0
 20
0.0
 30
0.0
  9
$UCSORGBACK
 10
0.0
 20
0.0
 30
0.0
  9
$PUCSBASE
  2

  9
$PUCSNAME
  2

  9
$PUCSORG
 10
0.0
 20
0.0
 30
0.0
  9
$PUCSXDIR
 10
1.0
 20
0.0
 30
0.0
  9
$PUCSYDIR
 10
0.0
 20
1.0
 30
0.0
  9
$PUCSORTHOREF
  2

  9
$PUCSORTHOVIEW
 70
     0
  9
$PUCSORGTOP
 10
0.0
 20
0.0
 30
0.0
  9
$PUCSORGBOTTOM
 10
0.0
 20
0.0
 30
0.0
  9
$PUCSORGLEFT
 10
0.0
 20
0.0
 30
0.0
  9
$PUCSORGRIGHT
 10
0.0
 20
0.0
 30
0.0
  9
$PUCSORGFRONT
 10
0.0
 20
0.0
 30
0.0
  9
$PUCSORGBACK
 10
0.0
 20
0.0
 30
0.0
  9
$USERI1
 70
     0
  9
$USERI2
 70
     0
  9
$USERI3
 70
     0
  9
$USERI4
 70
     0
  9
$USERI5
 70
     0
  9
$USERR1
 40
0.0
  9
$USERR2
 40
0.0
  9
$USERR3
 40
0.0
  9
$USERR4
 40
0.0
  9
$USERR5
 40
0.0
  9
$WORLDVIEW
 70
     1
  9
$SHADEDGE
 70
     3
  9
$SHADEDIF
 70
    70
  9
$TILEMODE
 70
     1
  9
$MAXACTVP
 70
    64
  9
$PINSBASE
 10
0.0
 20
0.0
 30
0.0
  9
$PLIMCHECK
 70
     0
  9
$PEXTMIN
 10
0.0
 20
0.0
 30
0.0
  9
$PEXTMAX
 10
0.0
 20
0.0
 30
0.0
  9
$PLIMMIN
 10
0.0
 20
0.0
  9
$PLIMMAX
 10
12.0
 20
9.0
  9
$UNITMODE
 70
     0
  9
$VISRETAIN
 70
     1
  9
$PLINEGEN
 70
     0
  9
$PSLTSCALE
 70
     1
  9
$TREEDEPTH
 70
  3020
  9
$CMLSTYLE
  2
Standard
  9
$CMLJUST
 70
     0
  9
$CMLSCALE
 40
20.0
  9
$PROXYGRAPHICS
 70
     1
  9
$MEASUREMENT
 70
     1
  9
$CELWEIGHT
370
    -1
  9
$ENDCAPS
280
     0
  9
$JOINSTYLE
280
     0
  9
$LWDISPLAY
290
     0
  9
$INSUNITS
 70
     4
  9
$HYPERLINKBASE
  1

  9
$STYLESHEET
  1

  9
$XEDIT
290
     1
  9
$CEPSNTYPE
380
     0
  9
$PSTYLEMODE
290
     1
  9
$EXTNAMES
290
     1
  9
$PSVPSCALE
 40
0.0
  9
$OLESTARTUP
290
     0
  9
$HANDSEED
  5
130A
  0
ENDSEC
  0
SECTION
  2
CLASSES
  0
CLASS
  1
ACDBDICTIONARYWDFLT
  2
AcDbDictionaryWithDefault
  3
ObjectDBX Classes
 90
        0
280
     0
281
     0
  0
CLASS
  1
DICTIONARYVAR
  2
AcDbDictionaryVar
  3
ObjectDBX Classes
 90
        0
280
     0
281
     0
  0
CLASS
  1
ACDBPLACEHOLDER
  2
AcDbPlaceHolder
  3
ObjectDBX Classes
 90
        0
280
     0
281
     0
  0
CLASS
  1
LAYOUT
  2
AcDbLayout
  3
ObjectDBX Classes
 90
        0
280
     0
281
     0
  0
ENDSEC
  0
SECTION
  2
TABLES
  0
TABLE
  2
VPORT
  5
8
330
0
100
AcDbSymbolTable
 70
     1
  0
VPORT
  5
B1
330
8
100
AcDbSymbolTableRecord
100
AcDbViewportTableRecord
  2
*Active
 70
     0
 10
0
 20
0
 11
1
 21
1
 12
146.6506457832906
 22
63.91573538520815
 13
0.0
 23
0.0
 14
10
 24
10
 15
10
 25
10
 16
0.0
 26
0.0
 36
1.0
 17
0.0
 27
0.0
 37
0.0
 40
212.80458943642853
 41
1.6000000000000003
 42
50.0
 43
0.0
 44
0.0
 50
0.0
 51
0.0
 71
     0
 72
   100
 73
     1
 74
     1
 75
     1
 76
     1
 77
     0
 78
     0
281
     0
 65
     1
110
0.0
120
0.0
130
0.0
111
1.0
121
0.0
131
0.0
112
0.0
122
1.0
132
0.0
 79
     0
146
0.0
  0
ENDTAB
  0
TABLE
  2
LTYPE
  5
5
330
0
100
AcDbSymbolTable
 70
     3
  0
LTYPE
  5
14
330
5
100
AcDbSymbolTableRecord
100
AcDbLinetypeTableRecord
  2
ByBlock
 70
     0
  3

 72
    65
 73
     0
 40
0.0
  0
LTYPE
  5
15
330
5
100
AcDbSymbolTableRecord
100
AcDbLinetypeTableRecord
  2
ByLayer
 70
     0
  3

 72
    65
 73
     0
 40
0.0
  0
LTYPE
  5
16
330
5
100
AcDbSymbolTableRecord
100
AcDbLinetypeTableRecord
  2
Continuous
 70
     0
  3
Solid line
 72
    65
 73
     0
 40
0.0
  0
LTYPE
  5
88
330
5
100
AcDbSymbolTableRecord
100
AcDbLinetypeTableRecord
  2
DashDot
 70
     0
  3
Dashdot _._._._._._._._._._._._._._._
 72
    65
 73
     4
 40
12.699999999999998
 49
6.349999999999999
 74
     0
 49
-3.174999999999999
 74
     0
 49
0
 74
     0
 49
-3.174999999999999
 74
     0
  0
LTYPE
  5
89
330
5
100
AcDbSymbolTableRecord
100
AcDbLinetypeTableRecord
  2
Dashed
 70
     0
  3
Dashed _ _ _ _ _ _ _ _ _ _ _ _ _ _ _
 72
    65
 73
     2
 40
9.524999999999999
 49
6.349999999999999
 74
     0
 49
-3.174999999999999
 74
     0
  0
ENDTAB
  0
TABLE
  2
LAYER
  5
2
330
0
100
AcDbSymbolTable
 70
     6
  0
LAYER
  5
10
330
2
100
AcDbSymbolTableRecord
100
AcDbLayerTableRecord
  2
0
 70
     0
 62
     7
  6
Continuous
370
    -3
390
128C
  0
LAYER
  5
C9
330
2
100
AcDbSymbolTableRecord
100
AcDbLayerTableRecord
  2
Sichtbare Körperkanten
 70
     0
 62
     7
  6
Continuous
370
    50
390
128C
  0
LAYER
  5
CA
330
2
100
AcDbSymbolTableRecord
100
AcDbLayerTableRecord
  2
Verdeckte Körperkante
 70
     0
 62
     7
  6
Dashed
370
    25
390
128C
  0
LAYER
  5
CB
330
2
100
AcDbSymbolTableRecord
100
AcDbLayerTableRecord
  2
Mittellinie
 70
     0
 62
     7
  6
DashDot
370
    25
390
128C
  0
LAYER
  5
CC
330
2
100
AcDbSymbolTableRecord
100
AcDbLayerTableRecord
  2
Hilfslinie
 70
     0
 62
     10
  6
Continuous
370
    25
390
128C
  0
LAYER
  5
D2
330
2
100
AcDbSymbolTableRecord
100
AcDbLayerTableRecord
  2
Bemassung
 70
     0
 62
     7
  6
Continuous
370
    25
390
128C
  0
ENDTAB
  0
TABLE
  2
STYLE
  5
3
330
0
100
AcDbSymbolTable
 70
     1
  0
STYLE
  5
11
330
3
100
AcDbSymbolTableRecord
100
AcDbTextStyleTableRecord
  2
Standard
 70
     0
 40
0.0
 41
1
 50
0
 71
     0
 42
2.5
  3
txt.shx
  4

  0
ENDTAB
  0
TABLE
  2
VIEW
  5
6
330
0
100
AcDbSymbolTable
 70
     0
  0
ENDTAB
  0
TABLE
  2
UCS
  5
7
330
0
100
AcDbSymbolTable
 70
     0
  0
ENDTAB
  0
TABLE
  2
APPID
  5
9
330
0
100
AcDbSymbolTable
 70
     1
  0
APPID
  5
12
330
9
100
AcDbSymbolTableRecord
100
AcDbRegAppTableRecord
  2
ACAD
 70
     0
  0
ENDTAB
  0
TABLE
  2
DIMSTYLE
  5
A
330
0
100
AcDbSymbolTable
 70
     1
100
AcDbDimStyleTable
 71
     0
  0
DIMSTYLE
105
27
330
A
100
AcDbSymbolTableRecord
100
AcDbDimStyleTableRecord
  2
ISO-25
 70
     0
  3
<>
  4
[]
 40
1
 41
2.5
 42
0.625
 43
3.75
 44
1.25
 45
0
 46
0
 47
0
 48
0
 71
          0
 72
          0
 73
          0
 74
          0
 75
          0
 76
          0
 77
     1
 78
     8
 79
     0
140
2.5
141
2.5
142
0
143
0.03937007874016
144
1
145
0
146
1
147
0.625
148
0
170
          0
171
     3
172
          1
173
     0
174
          0
175
          0
176
     0
177
     0
178
     0
179
     0
271
     2
272
     2
273
     2
274
     3
275
     0
276
     0
277
     2
278
     44
279
     0
280
     0
281
          0
282
          0
283
     0
284
     0
285
     0
286
     0
287
     3
288
     0
289
     3
340
11
371
-2
372
-2
  0
ENDTAB
  0
TABLE
  2
BLOCK_RECORD
  5
1
330
0
100
AcDbSymbolTable
 70
     34
  0
BLOCK_RECORD
  5
1F
330
1
100
AcDbSymbolTableRecord
100
AcDbBlockTableRecord
  2
*Model_Space
340
22
  0
BLOCK_RECORD
  5
50
330
1
100
AcDbSymbolTableRecord
100
AcDbBlockTableRecord
  2
*Paper_Space
340
51
  0
BLOCK_RECORD
  5
55
330
1
100
AcDbSymbolTableRecord
100
AcDbBlockTableRecord
  2
*Paper_Space0
340
56
  0
BLOCK_RECORD
  5
D4
330
1
100
AcDbSymbolTableRecord
100
AcDbBlockTableRecord
  2
*D211
  0
BLOCK_RECORD
  5
137
330
1
100
AcDbSymbolTableRecord
100
AcDbBlockTableRecord
  2
*D232
  0
BLOCK_RECORD
  5
14B
330
1
100
AcDbSymbolTableRecord
100
AcDbBlockTableRecord
  2
*D253
  0
BLOCK_RECORD
  5
20D
330
1
100
AcDbSymbolTableRecord
100
AcDbBlockTableRecord
  2
*D524
  0
BLOCK_RECORD
  5
24C
330
1
100
AcDbSymbolTableRecord
100
AcDbBlockTableRecord
  2
*D587
  0
BLOCK_RECORD
  5
3E9
330
1
100
AcDbSymbolTableRecord
100
AcDbBlockTableRecord
  2
*D545
  0
BLOCK_RECORD
  5
3FD
330
1
100
AcDbSymbolTableRecord
100
AcDbBlockTableRecord
  2
*D566
  0
BLOCK_RECORD
  5
411
330
1
100
AcDbSymbolTableRecord
100
AcDbBlockTableRecord
  2
*D608
  0
BLOCK_RECORD
  5
425
330
1
100
AcDbSymbolTableRecord
100
AcDbBlockTableRecord
  2
*D629
  0
BLOCK_RECORD
  5
4B0
330
1
100
AcDbSymbolTableRecord
100
AcDbBlockTableRecord
  2
*D503
  0
BLOCK_RECORD
  5
4D9
330
1
100
AcDbSymbolTableRecord
100
AcDbBlockTableRecord
  2
*D1240
  0
BLOCK_RECORD
  5
503
330
1
100
AcDbSymbolTableRecord
100
AcDbBlockTableRecord
  2
*D1282
  0
BLOCK_RECORD
  5
518
330
1
100
AcDbSymbolTableRecord
100
AcDbBlockTableRecord
  2
*D1303
  0
BLOCK_RECORD
  5
A69
330
1
100
AcDbSymbolTableRecord
100
AcDbBlockTableRecord
  2
*D1324
  0
BLOCK_RECORD
  5
B5E
330
1
100
AcDbSymbolTableRecord
100
AcDbBlockTableRecord
  2
*D659
  0
BLOCK_RECORD
  5
B72
330
1
100
AcDbSymbolTableRecord
100
AcDbBlockTableRecord
  2
*D1261
  0
BLOCK_RECORD
  5
B86
330
1
100
AcDbSymbolTableRecord
100
AcDbBlockTableRecord
  2
*D1345
  0
BLOCK_RECORD
  5
B9A
330
1
100
AcDbSymbolTableRecord
100
AcDbBlockTableRecord
  2
*D1366
  0
BLOCK_RECORD
  5
BAE
330
1
100
AcDbSymbolTableRecord
100
AcDbBlockTableRecord
  2
*D1387
  0
BLOCK_RECORD
  5
BC2
330
1
100
AcDbSymbolTableRecord
100
AcDbBlockTableRecord
  2
*D2745
  0
BLOCK_RECORD
  5
CF7
330
1
100
AcDbSymbolTableRecord
100
AcDbBlockTableRecord
  2
*D3318
  0
BLOCK_RECORD
  5
D21
330
1
100
AcDbSymbolTableRecord
100
AcDbBlockTableRecord
  2
*D3360
  0
BLOCK_RECORD
  5
D36
330
1
100
AcDbSymbolTableRecord
100
AcDbBlockTableRecord
  2
*D3381
  0
BLOCK_RECORD
  5
EE0
330
1
100
AcDbSymbolTableRecord
100
AcDbBlockTableRecord
  2
*D3486
  0
BLOCK_RECORD
  5
EF5
330
1
100
AcDbSymbolTableRecord
100
AcDbBlockTableRecord
  2
*D3828
  0
BLOCK_RECORD
  5
128D
330
1
100
AcDbSymbolTableRecord
100
AcDbBlockTableRecord
  2
*D3339
  0
BLOCK_RECORD
  5
12A1
330
1
100
AcDbSymbolTableRecord
100
AcDbBlockTableRecord
  2
*D3402
  0
BLOCK_RECORD
  5
12B5
330
1
100
AcDbSymbolTableRecord
100
AcDbBlockTableRecord
  2
*D3423
  0
BLOCK_RECORD
  5
12C9
330
1
100
AcDbSymbolTableRecord
100
AcDbBlockTableRecord
  2
*D3444
  0
BLOCK_RECORD
  5
12DD
330
1
100
AcDbSymbolTableRecord
100
AcDbBlockTableRecord
  2
*D3465
  0
BLOCK_RECORD
  5
12F1
330
1
100
AcDbSymbolTableRecord
100
AcDbBlockTableRecord
  2
*D3849
  0
ENDTAB
  0
ENDSEC
  0
SECTION
  2
BLOCKS
  0
BLOCK
  5
20
330
1F
100
AcDbEntity
  8
0
100
AcDbBlockBegin
  2
*Model_Space
 70
     0
 10
0
 20
0
 30
0.0
  3
*Model_Space
  1

  0
ENDBLK
  5
21
330
1F
100
AcDbEntity
  8
0
100
AcDbBlockEnd
  0
BLOCK
  5
52
330
50
100
AcDbEntity
 67
     1
  8
0
100
AcDbBlockBegin
  2
*Paper_Space
 70
     0
 10
0
 20
0
 30
0.0
  3
*Paper_Space
  1

  0
ENDBLK
  5
53
330
50
100
AcDbEntity
 67
     1
  8
0
100
AcDbBlockEnd
  0
BLOCK
  5
57
330
55
100
AcDbEntity
  8
0
100
AcDbBlockBegin
  2
*Paper_Space0
 70
     0
 10
0
 20
0
 30
0.0
  3
*Paper_Space0
  1

  0
ENDBLK
  5
58
330
55
100
AcDbEntity
  8
0
100
AcDbBlockEnd
  0
BLOCK
  5
D5
330
D4
100
AcDbEntity
  8
0
100
AcDbBlockBegin
  2
*D211
 70
     0
 10
0
 20
0
 30
0.0
  3
*D211
  1

  0
MTEXT
  5
11BF
100
AcDbEntity
  8
Bemassung
  6
ByLayer
 62
   256
370
                                                            -1
100
AcDbMText
 10
260
 20
112.291625
 30
0.0
 40
2.5
 41
0
 44
1
  1
200
  7
Standard
 71
     5
 72
     5
 73
     1
 11
1
 21
0
 31
0.0
  0
LINE
  5
11C0
100
AcDbEntity
  8
Bemassung
  6
ByLayer
 62
   256
370
                                                            -1
100
AcDbLine
 10
159.99999999999997
 20
110.625
 30
0.0
 11
159.99999999999997
 21
111.25
 31
0.0
  0
LINE
  5
11C1
100
AcDbEntity
  8
Bemassung
  6
ByLayer
 62
   256
370
                                                            -1
100
AcDbLine
 10
360
 20
110.625
 30
0.0
 11
360
 21
111.25
 31
0.0
  0
SOLID
  5
11C2
100
AcDbEntity
  8
Bemassung
  6
ByLayer
 62
   256
370
                                                            -1
100
AcDbTrace
 10
159.99999999999997
 20
110
 30
0.0
 11
162.49999999999997
 21
110.44081745177117
 31
0.0
 12
162.49999999999997
 22
109.55918254822883
 32
0.0
 13
162.49999999999997
 23
109.55918254822883
 33
0.0
  0
SOLID
  5
11C3
100
AcDbEntity
  8
Bemassung
  6
ByLayer
 62
   256
370
                                                            -1
100
AcDbTrace
 10
360
 20
110
 30
0.0
 11
357.5
 21
109.55918254822883
 31
0.0
 12
357.5
 22
110.44081745177117
 32
0.0
 13
357.5
 23
110.44081745177117
 33
0.0
  0
LINE
  5
11C4
100
AcDbEntity
  8
Bemassung
  6
ByLayer
 62
   256
370
                                                            -1
100
AcDbLine
 10
162.49999999999997
 20
110
 30
0.0
 11
357.5
 21
110
 31
0.0
  0
ENDBLK
  5
D6
330
D4
100
AcDbEntity
  8
0
100
AcDbBlockEnd
  0
BLOCK
  5
138
330
137
100
AcDbEntity
  8
0
100
AcDbBlockBegin
  2
*D232
 70
     0
 10
0
 20
0
 30
0.0
  3
*D232
  1

  0
MTEXT
  5
11C5
100
AcDbEntity
  8
Bemassung
  6
ByLayer
 62
   256
370
                                                            -1
100
AcDbMText
 10
260
 20
102.291625
 30
0.0
 40
2.5
 41
0
 44
1
  1
200
  7
Standard
 71
     5
 72
     5
 73
     1
 11
1
 21
0
 31
0.0
  0
LINE
  5
11C6
100
AcDbEntity
  8
Bemassung
  6
ByLayer
 62
   256
370
                                                            -1
100
AcDbLine
 10
159.99999999999997
 20
109.375
 30
0.0
 11
159.99999999999997
 21
98.75
 31
0.0
  0
LINE
  5
11C7
100
AcDbEntity
  8
Bemassung
  6
ByLayer
 62
   256
370
                                                            -1
100
AcDbLine
 10
360
 20
109.375
 30
0.0
 11
360
 21
98.75
 31
0.0
  0
SOLID
  5
11C8
100
AcDbEntity
  8
Bemassung
  6
ByLayer
 62
   256
370
                                                            -1
100
AcDbTrace
 10
159.99999999999997
 20
100
 30
0.0
 11
162.49999999999997
 21
100.44081745177117
 31
0.0
 12
162.49999999999997
 22
99.55918254822883
 32
0.0
 13
162.49999999999997
 23
99.55918254822883
 33
0.0
  0
SOLID
  5
11C9
100
AcDbEntity
  8
Bemassung
  6
ByLayer
 62
   256
370
                                                            -1
100
AcDbTrace
 10
360
 20
100
 30
0.0
 11
357.5
 21
99.55918254822883
 31
0.0
 12
357.5
 22
100.44081745177117
 32
0.0
 13
357.5
 23
100.44081745177117
 33
0.0
  0
LINE
  5
11CA
100
AcDbEntity
  8
Bemassung
  6
ByLayer
 62
   256
370
                                                            -1
100
AcDbLine
 10
162.49999999999997
 20
100
 30
0.0
 11
357.5
 21
100
 31
0.0
  0
ENDBLK
  5
139
330
137
100
AcDbEntity
  8
0
100
AcDbBlockEnd
  0
BLOCK
  5
14C
330
14B
100
AcDbEntity
  8
0
100
AcDbBlockBegin
  2
*D253
 70
     0
 10
0
 20
0
 30
0.0
  3
*D253
  1

  0
MTEXT
  5
11CB
100
AcDbEntity
  8
Bemassung
  6
ByLayer
 62
   256
370
                                                            -1
100
AcDbMText
 10
147.708375
 20
160
 30
0.0
 40
2.5
 41
0
 44
1
  1
100
  7
Standard
 71
     5
 72
     5
 73
     1
 11
6.123233995736766e-17
 21
1
 31
0.0
  0
LINE
  5
11CC
100
AcDbEntity
  8
Bemassung
  6
ByLayer
 62
   256
370
                                                            -1
100
AcDbLine
 10
159.375
 20
210.00000000000003
 30
0.0
 11
148.75000000000003
 21
210.00000000000003
 31
0.0
  0
LINE
  5
11CD
100
AcDbEntity
  8
Bemassung
  6
ByLayer
 62
   256
370
                                                            -1
100
AcDbLine
 10
159.37499999999997
 20
110
 30
0.0
 11
148.75
 21
110
 31
0.0
  0
SOLID
  5
11CE
100
AcDbEntity
  8
Bemassung
  6
ByLayer
 62
   256
370
                                                            -1
100
AcDbTrace
 10
150.00000000000003
 20
210.00000000000003
 30
0.0
 11
150.44081745177118
 21
207.50000000000003
 31
0.0
 12
149.55918254822888
 22
207.50000000000003
 32
0.0
 13
149.55918254822888
 23
207.50000000000003
 33
0.0
  0
SOLID
  5
11CF
100
AcDbEntity
  8
Bemassung
  6
ByLayer
 62
   256
370
                                                            -1
100
AcDbTrace
 10
150
 20
110
 30
0.0
 11
149.55918254822885
 21
112.5
 31
0.0
 12
150.44081745177115
 22
112.5
 32
0.0
 13
150.44081745177115
 23
112.5
 33
0.0
  0
LINE
  5
11D0
100
AcDbEntity
  8
Bemassung
  6
ByLayer
 62
   256
370
                                                            -1
100
AcDbLine
 10
150.00000000000003
 20
207.50000000000003
 30
0.0
 11
150
 21
112.5
 31
0.0
  0
ENDBLK
  5
14D
330
14B
100
AcDbEntity
  8
0
100
AcDbBlockEnd
  0
BLOCK
  5
20E
330
20D
100
AcDbEntity
  8
0
100
AcDbBlockBegin
  2
*D524
 70
     0
 10
0
 20
0
 30
0.0
  3
*D524
  1

  0
MTEXT
  5
11D1
100
AcDbEntity
  8
Bemassung
  6
ByLayer
 62
   256
370
                                                -1
100
AcDbMText
 10
397.708375
 20
46.24999999999995
 30
0.0
 40
2.5
 41
0
 44
1
  1
0
  7
Standard
 71
     5
 72
     5
 73
     1
 11
6.123233995736766e-17
 21
1
 31
0.0
  0
LINE
  5
11D2
100
AcDbEntity
  8
Bemassung
  6
ByLayer
 62
   256
370
                                                -1
100
AcDbLine
 10
20.625
 20
40
 30
0.0
 11
401.25
 21
39.99999999999995
 31
0.0
  0
LINE
  5
11D3
100
AcDbEntity
  8
Bemassung
  6
ByLayer
 62
   256
370
                                                -1
100
AcDbLine
 10
20.625
 20
40
 30
0.0
 11
401.25
 21
39.99999999999995
 31
0.0
  0
SOLID
  5
11D4
100
AcDbEntity
  8
Bemassung
  6
ByLayer
 62
   256
370
                                                -1
100
AcDbTrace
 10
400
 20
39.99999999999995
 30
0.0
 11
399.5591825482288
 21
42.49999999999995
 31
0.0
 12
400.4408174517712
 22
42.49999999999995
 32
0.0
 13
400.4408174517712
 23
42.49999999999995
 33
0.0
  0
SOLID
  5
11D5
100
AcDbEntity
  8
Bemassung
  6
ByLayer
 62
   256
370
                                                -1
100
AcDbTrace
 10
400
 20
39.99999999999995
 30
0.0
 11
399.5591825482288
 21
42.49999999999995
 31
0.0
 12
400.4408174517712
 22
42.49999999999995
 32
0.0
 13
400.4408174517712
 23
42.49999999999995
 33
0.0
  0
LINE
  5
11D6
100
AcDbEntity
  8
Bemassung
  6
ByLayer
 62
   256
370
                                                -1
100
AcDbLine
 10
400
 20
39.99999999999995
 30
0.0
 11
400
 21
39.99999999999995
 31
0.0
  0
LINE
  5
11D7
100
AcDbEntity
  8
Bemassung
  6
ByLayer
 62
   256
370
                                                -1
100
AcDbLine
 10
400
 20
42.49999999999995
 30
0.0
 11
400
 21
44.99999999999995
 31
0.0
  0
LINE
  5
11D8
100
AcDbEntity
  8
Bemassung
  6
ByLayer
 62
   256
370
                                                -1
100
AcDbLine
 10
400
 20
42.49999999999995
 30
0.0
 11
400
 21
47.49999999999995
 31
0.0
  0
ENDBLK
  5
20F
330
20D
100
AcDbEntity
  8
0
100
AcDbBlockEnd
  0
BLOCK
  5
24D
330
24C
100
AcDbEntity
  8
0
100
AcDbBlockBegin
  2
*D587
 70
     0
 10
0
 20
0
 30
0.0
  3
*D587
  1

  0
MTEXT
  5
11D9
100
AcDbEntity
  8
Bemassung
  6
ByLayer
 62
   256
370
                                                -1
100
AcDbMText
 10
207.708375
 20
65
 30
0.0
 40
2.5
 41
0
 44
1
  1
D 30
  7
Standard
 71
     5
 72
     5
 73
     1
 11
6.123233995736766e-17
 21
1
 31
0.0
  0
LINE
  5
11DA
100
AcDbEntity
  8
Bemassung
  6
ByLayer
 62
   256
370
                                                -1
100
AcDbLine
 10
200.625
 20
80
 30
0.0
 11
211.25
 21
80
 31
0.0
  0
LINE
  5
11DB
100
AcDbEntity
  8
Bemassung
  6
ByLayer
 62
   256
370
                                                -1
100
AcDbLine
 10
200.625
 20
50
 30
0.0
 11
211.25
 21
50
 31
0.0
  0
SOLID
  5
11DC
100
AcDbEntity
  8
Bemassung
  6
ByLayer
 62
   256
370
                                                -1
100
AcDbTrace
 10
210
 20
80
 30
0.0
 11
210.44081745177115
 21
77.5
 31
0.0
 12
209.55918254822885
 22
77.5
 32
0.0
 13
209.55918254822885
 23
77.5
 33
0.0
  0
SOLID
  5
11DD
100
AcDbEntity
  8
Bemassung
  6
ByLayer
 62
   256
370
                                                -1
100
AcDbTrace
 10
210
 20
50
 30
0.0
 11
209.55918254822885
 21
52.5
 31
0.0
 12
210.44081745177115
 22
52.5
 32
0.0
 13
210.44081745177115
 23
52.5
 33
0.0
  0
LINE
  5
11DE
100
AcDbEntity
  8
Bemassung
  6
ByLayer
 62
   256
370
                                                -1
100
AcDbLine
 10
210
 20
77.5
 30
0.0
 11
210
 21
52.5
 31
0.0
  0
ENDBLK
  5
24E
330
24C
100
AcDbEntity
  8
0
100
AcDbBlockEnd
  0
BLOCK
  5
3EA
330
3E9
100
AcDbEntity
  8
0
100
AcDbBlockBegin
  2
*D545
 70
     0
 10
0
 20
0
 30
0.0
  3
*D545
  1

  0
MTEXT
  5
11DF
100
AcDbEntity
  8
Bemassung
  6
ByLayer
 62
   256
370
                                                -1
100
AcDbMText
 10
210
 20
32.291624999999996
 30
0.0
 40
2.5
 41
0
 44
1
  1
2000
  7
Standard
 71
     5
 72
     5
 73
     1
 11
1
 21
0
 31
0.0
  0
LINE
  5
11E0
100
AcDbEntity
  8
Bemassung
  6
ByLayer
 62
   256
370
                                                -1
100
AcDbLine
 10
20
 20
39.375
 30
0.0
 11
20
 21
28.75
 31
0.0
  0
LINE
  5
11E1
100
AcDbEntity
  8
Bemassung
  6
ByLayer
 62
   256
370
                                                -1
100
AcDbLine
 10
400
 20
39.375
 30
0.0
 11
400
 21
28.75
 31
0.0
  0
SOLID
  5
11E2
100
AcDbEntity
  8
Bemassung
  6
ByLayer
 62
   256
370
                                                -1
100
AcDbTrace
 10
20
 20
30
 30
0.0
 11
22.5
 21
30.440817451771164
 31
0.0
 12
22.5
 22
29.559182548228836
 32
0.0
 13
22.5
 23
29.559182548228836
 33
0.0
  0
SOLID
  5
11E3
100
AcDbEntity
  8
Bemassung
  6
ByLayer
 62
   256
370
                                                -1
100
AcDbTrace
 10
400
 20
30
 30
0.0
 11
397.5
 21
29.559182548228836
 31
0.0
 12
397.5
 22
30.440817451771164
 32
0.0
 13
397.5
 23
30.440817451771164
 33
0.0
  0
LINE
  5
11E4
100
AcDbEntity
  8
Bemassung
  6
ByLayer
 62
   256
370
                                                -1
100
AcDbLine
 10
22.5
 20
30
 30
0.0
 11
397.5
 21
30
 31
0.0
  0
ENDBLK
  5
3EB
330
3E9
100
AcDbEntity
  8
0
100
AcDbBlockEnd
  0
BLOCK
  5
3FE
330
3FD
100
AcDbEntity
  8
0
100
AcDbBlockBegin
  2
*D566
 70
     0
 10
0
 20
0
 30
0.0
  3
*D566
  1

  0
MTEXT
  5
11E5
100
AcDbEntity
  8
Bemassung
  6
ByLayer
 62
   256
370
                                                -1
100
AcDbMText
 10
407.708375
 20
65
 30
0.0
 40
2.5
 41
0
 44
1
  1
D 60
  7
Standard
 71
     5
 72
     5
 73
     1
 11
6.123233995736766e-17
 21
1
 31
0.0
  0
LINE
  5
11E6
100
AcDbEntity
  8
Bemassung
  6
ByLayer
 62
   256
370
                                                -1
100
AcDbLine
 10
400.625
 20
90
 30
0.0
 11
411.25
 21
90
 31
0.0
  0
LINE
  5
11E7
100
AcDbEntity
  8
Bemassung
  6
ByLayer
 62
   256
370
                                                -1
100
AcDbLine
 10
400.625
 20
40
 30
0.0
 11
411.25
 21
40
 31
0.0
  0
SOLID
  5
11E8
100
AcDbEntity
  8
Bemassung
  6
ByLayer
 62
   256
370
                                                -1
100
AcDbTrace
 10
410
 20
90
 30
0.0
 11
410.4408174517712
 21
87.5
 31
0.0
 12
409.5591825482288
 22
87.5
 32
0.0
 13
409.5591825482288
 23
87.5
 33
0.0
  0
SOLID
  5
11E9
100
AcDbEntity
  8
Bemassung
  6
ByLayer
 62
   256
370
                                                -1
100
AcDbTrace
 10
410
 20
40
 30
0.0
 11
409.5591825482288
 21
42.5
 31
0.0
 12
410.4408174517712
 22
42.5
 32
0.0
 13
410.4408174517712
 23
42.5
 33
0.0
  0
LINE
  5
11EA
100
AcDbEntity
  8
Bemassung
  6
ByLayer
 62
   256
370
                                                -1
100
AcDbLine
 10
410
 20
87.5
 30
0.0
 11
410
 21
42.5
 31
0.0
  0
ENDBLK
  5
3FF
330
3FD
100
AcDbEntity
  8
0
100
AcDbBlockEnd
  0
BLOCK
  5
412
330
411
100
AcDbEntity
  8
0
100
AcDbBlockBegin
  2
*D608
 70
     0
 10
0
 20
0
 30
0.0
  3
*D608
  1

  0
MTEXT
  5
11EB
100
AcDbEntity
  8
Bemassung
  6
ByLayer
 62
   256
370
                                                -1
100
AcDbMText
 10
238.34815346466107
 20
65.00000000000001
 30
0.0
 40
2.5
 41
0
 44
1
  1
D 26
  7
Standard
 71
     5
 72
     5
 73
     1
 11
6.123233995736766e-17
 21
1
 31
0.0
  0
LINE
  5
11EC
100
AcDbEntity
  8
Bemassung
  6
ByLayer
 62
   256
370
                                                -1
100
AcDbLine
 10
241.8814030267287
 20
78
 30
0.0
 11
239.38977846466108
 21
78
 31
0.0
  0
LINE
  5
11ED
100
AcDbEntity
  8
Bemassung
  6
ByLayer
 62
   256
370
                                                -1
100
AcDbLine
 10
241.8814030267287
 20
52.00000000000002
 30
0.0
 11
239.38977846466108
 21
52.00000000000002
 31
0.0
  0
SOLID
  5
11EE
100
AcDbEntity
  8
Bemassung
  6
ByLayer
 62
   256
370
                                                -1
100
AcDbTrace
 10
240.63977846466108
 20
78
 30
0.0
 11
241.08059591643223
 21
75.5
 31
0.0
 12
240.19896101288992
 22
75.5
 32
0.0
 13
240.19896101288992
 23
75.5
 33
0.0
  0
SOLID
  5
11EF
100
AcDbEntity
  8
Bemassung
  6
ByLayer
 62
   256
370
                                                -1
100
AcDbTrace
 10
240.63977846466108
 20
52.00000000000002
 30
0.0
 11
240.19896101288992
 21
54.50000000000002
 31
0.0
 12
241.08059591643223
 22
54.50000000000002
 32
0.0
 13
241.08059591643223
 23
54.50000000000002
 33
0.0
  0
LINE
  5
11F0
100
AcDbEntity
  8
Bemassung
  6
ByLayer
 62
   256
370
                                                -1
100
AcDbLine
 10
240.63977846466108
 20
75.5
 30
0.0
 11
240.63977846466108
 21
54.50000000000002
 31
0.0
  0
ENDBLK
  5
413
330
411
100
AcDbEntity
  8
0
100
AcDbBlockEnd
  0
BLOCK
  5
426
330
425
100
AcDbEntity
  8
0
100
AcDbBlockBegin
  2
*D629
 70
     0
 10
0
 20
0
 30
0.0
  3
*D629
  1

  0
MTEXT
  5
11F1
100
AcDbEntity
  8
Bemassung
  6
ByLayer
 62
   256
370
                                                -1
100
AcDbMText
 10
408.4583333333333
 20
102.90652901522917
 30
0.0
 40
2.5
 41
0
 44
1
  1
2
  7
Standard
 71
     5
 72
     5
 73
     1
 11
1
 21
0
 31
0.0
  0
LINE
  5
11F2
100
AcDbEntity
  8
Bemassung
  6
ByLayer
 62
   256
370
                                                -1
100
AcDbLine
 10
400
 20
90.625
 30
0.0
 11
400
 21
101.86490401522917
 31
0.0
  0
LINE
  5
11F3
100
AcDbEntity
  8
Bemassung
  6
ByLayer
 62
   256
370
                                                -1
100
AcDbLine
 10
402
 20
90.625
 30
0.0
 11
402
 21
101.86490401522917
 31
0.0
  0
SOLID
  5
11F4
100
AcDbEntity
  8
Bemassung
  6
ByLayer
 62
   256
370
                                                -1
100
AcDbTrace
 10
400
 20
100.61490401522917
 30
0.0
 11
397.5
 21
100.174086563458
 31
0.0
 12
397.5
 22
101.05572146700034
 32
0.0
 13
397.5
 23
101.05572146700034
 33
0.0
  0
SOLID
  5
11F5
100
AcDbEntity
  8
Bemassung
  6
ByLayer
 62
   256
370
                                                -1
100
AcDbTrace
 10
402
 20
100.61490401522917
 30
0.0
 11
404.5
 21
101.05572146700034
 31
0.0
 12
404.5
 22
100.174086563458
 32
0.0
 13
404.5
 23
100.174086563458
 33
0.0
  0
LINE
  5
11F6
100
AcDbEntity
  8
Bemassung
  6
ByLayer
 62
   256
370
                                                -1
100
AcDbLine
 10
400
 20
100.61490401522917
 30
0.0
 11
402
 21
100.61490401522917
 31
0.0
  0
LINE
  5
11F7
100
AcDbEntity
  8
Bemassung
  6
ByLayer
 62
   256
370
                                                -1
100
AcDbLine
 10
397.5
 20
100.61490401522917
 30
0.0
 11
395
 21
100.61490401522917
 31
0.0
  0
LINE
  5
11F8
100
AcDbEntity
  8
Bemassung
  6
ByLayer
 62
   256
370
                                                -1
100
AcDbLine
 10
404.5
 20
100.61490401522917
 30
0.0
 11
409.91666666666663
 21
100.61490401522917
 31
0.0
  0
ENDBLK
  5
427
330
425
100
AcDbEntity
  8
0
100
AcDbBlockEnd
  0
BLOCK
  5
4B1
330
4B0
100
AcDbEntity
  8
0
100
AcDbBlockBegin
  2
*D503
 70
     0
 10
0
 20
0
 30
0.0
  3
*D503
  1

  0
MTEXT
  5
11F9
100
AcDbEntity
  8
Bemassung
  6
ByLayer
 62
   256
370
                                                -1
100
AcDbMText
 10
85
 20
42.291624999999996
 30
0.0
 40
2.5
 41
0
 44
1
  1
D8
  7
Standard
 71
     5
 72
     5
 73
     1
 11
1
 21
0
 31
0.0
  0
LINE
  5
11FA
100
AcDbEntity
  8
Bemassung
  6
ByLayer
 62
   256
370
                                                -1
100
AcDbLine
 10
80
 20
49.375
 30
0.0
 11
80
 21
38.75
 31
0.0
  0
LINE
  5
11FB
100
AcDbEntity
  8
Bemassung
  6
ByLayer
 62
   256
370
                                                -1
100
AcDbLine
 10
90
 20
49.375
 30
0.0
 11
90
 21
38.75
 31
0.0
  0
SOLID
  5
11FC
100
AcDbEntity
  8
Bemassung
  6
ByLayer
 62
   256
370
                                                -1
100
AcDbTrace
 10
80
 20
40
 30
0.0
 11
82.5
 21
40.44081745177116
 31
0.0
 12
82.5
 22
39.55918254822884
 32
0.0
 13
82.5
 23
39.55918254822884
 33
0.0
  0
SOLID
  5
11FD
100
AcDbEntity
  8
Bemassung
  6
ByLayer
 62
   256
370
                                                -1
100
AcDbTrace
 10
90
 20
40
 30
0.0
 11
87.5
 21
39.55918254822884
 31
0.0
 12
87.5
 22
40.44081745177116
 32
0.0
 13
87.5
 23
40.44081745177116
 33
0.0
  0
LINE
  5
11FE
100
AcDbEntity
  8
Bemassung
  6
ByLayer
 62
   256
370
                                                -1
100
AcDbLine
 10
82.5
 20
40
 30
0.0
 11
87.5
 21
40
 31
0.0
  0
ENDBLK
  5
4B2
330
4B0
100
AcDbEntity
  8
0
100
AcDbBlockEnd
  0
BLOCK
  5
4DA
330
4D9
100
AcDbEntity
  8
0
100
AcDbBlockBegin
  2
*D1240
 70
     0
 10
0
 20
0
 30
0.0
  3
*D1240
  1

  0
MTEXT
  5
11FF
100
AcDbEntity
  8
Bemassung
  6
ByLayer
 62
   256
370
                                       -1
100
AcDbMText
 10
140
 20
32.291625
 30
0.0
 40
2.5
 41
0
 44
1
  1
240
  7
Standard
 71
     5
 72
     5
 73
     1
 11
1
 21
0
 31
0.0
  0
LINE
  5
1200
100
AcDbEntity
  8
Bemassung
  6
ByLayer
 62
   256
370
                                       -1
100
AcDbLine
 10
19.999999999999993
 20
49.375
 30
0.0
 11
19.999999999999993
 21
28.75
 31
0.0
  0
LINE
  5
1201
100
AcDbEntity
  8
Bemassung
  6
ByLayer
 62
   256
370
                                       -1
100
AcDbLine
 10
260
 20
49.375
 30
0.0
 11
260
 21
28.75
 31
0.0
  0
SOLID
  5
1202
100
AcDbEntity
  8
Bemassung
  6
ByLayer
 62
   256
370
                                       -1
100
AcDbTrace
 10
19.999999999999993
 20
30
 30
0.0
 11
22.499999999999993
 21
30.440817451771164
 31
0.0
 12
22.499999999999993
 22
29.559182548228836
 32
0.0
 13
22.499999999999993
 23
29.559182548228836
 33
0.0
  0
SOLID
  5
1203
100
AcDbEntity
  8
Bemassung
  6
ByLayer
 62
   256
370
                                       -1
100
AcDbTrace
 10
260
 20
30
 30
0.0
 11
257.5
 21
29.559182548228836
 31
0.0
 12
257.5
 22
30.440817451771164
 32
0.0
 13
257.5
 23
30.440817451771164
 33
0.0
  0
LINE
  5
1204
100
AcDbEntity
  8
Bemassung
  6
ByLayer
 62
   256
370
                                       -1
100
AcDbLine
 10
22.499999999999993
 20
30
 30
0.0
 11
257.5
 21
30
 31
0.0
  0
ENDBLK
  5
4DB
330
4D9
100
AcDbEntity
  8
0
100
AcDbBlockEnd
  0
BLOCK
  5
504
330
503
100
AcDbEntity
  8
0
100
AcDbBlockBegin
  2
*D1282
 70
     0
 10
0
 20
0
 30
0.0
  3
*D1282
  1

  0
MTEXT
  5
1205
100
AcDbEntity
  8
Bemassung
  6
ByLayer
 62
   256
370
                                       -1
100
AcDbMText
 10
140
 20
52.291625
 30
0.0
 40
2.5
 41
0
 44
1
  1
240
  7
Standard
 71
     5
 72
     5
 73
     1
 11
1
 21
0
 31
0.0
  0
LINE
  5
1206
100
AcDbEntity
  8
Bemassung
  6
ByLayer
 62
   256
370
                                       -1
100
AcDbLine
 10
19.999999999999993
 20
50.625
 30
0.0
 11
19.999999999999993
 21
51.25
 31
0.0
  0
LINE
  5
1207
100
AcDbEntity
  8
Bemassung
  6
ByLayer
 62
   256
370
                                       -1
100
AcDbLine
 10
260
 20
50.625
 30
0.0
 11
260
 21
51.25
 31
0.0
  0
SOLID
  5
1208
100
AcDbEntity
  8
Bemassung
  6
ByLayer
 62
   256
370
                                       -1
100
AcDbTrace
 10
19.999999999999993
 20
50
 30
0.0
 11
22.499999999999993
 21
50.44081745177116
 31
0.0
 12
22.499999999999993
 22
49.55918254822884
 32
0.0
 13
22.499999999999993
 23
49.55918254822884
 33
0.0
  0
SOLID
  5
1209
100
AcDbEntity
  8
Bemassung
  6
ByLayer
 62
   256
370
                                       -1
100
AcDbTrace
 10
260
 20
50
 30
0.0
 11
257.5
 21
49.55918254822884
 31
0.0
 12
257.5
 22
50.44081745177116
 32
0.0
 13
257.5
 23
50.44081745177116
 33
0.0
  0
LINE
  5
120A
100
AcDbEntity
  8
Bemassung
  6
ByLayer
 62
   256
370
                                       -1
100
AcDbLine
 10
22.499999999999993
 20
50
 30
0.0
 11
257.5
 21
50
 31
0.0
  0
ENDBLK
  5
505
330
503
100
AcDbEntity
  8
0
100
AcDbBlockEnd
  0
BLOCK
  5
519
330
518
100
AcDbEntity
  8
0
100
AcDbBlockBegin
  2
*D1303
 70
     0
 10
0
 20
0
 30
0.0
  3
*D1303
  1

  0
MTEXT
  5
120B
100
AcDbEntity
  8
Bemassung
  6
ByLayer
 62
   256
370
                                       -1
100
AcDbMText
 10
140
 20
52.291625
 30
0.0
 40
2.5
 41
0
 44
1
  1
240
  7
Standard
 71
     5
 72
     5
 73
     1
 11
1
 21
0
 31
0.0
  0
LINE
  5
120C
100
AcDbEntity
  8
Bemassung
  6
ByLayer
 62
   256
370
                                       -1
100
AcDbLine
 10
19.999999999999993
 20
50.625
 30
0.0
 11
19.999999999999993
 21
51.25
 31
0.0
  0
LINE
  5
120D
100
AcDbEntity
  8
Bemassung
  6
ByLayer
 62
   256
370
                                       -1
100
AcDbLine
 10
260
 20
50.625
 30
0.0
 11
260
 21
51.25
 31
0.0
  0
SOLID
  5
120E
100
AcDbEntity
  8
Bemassung
  6
ByLayer
 62
   256
370
                                       -1
100
AcDbTrace
 10
19.999999999999993
 20
50
 30
0.0
 11
22.499999999999993
 21
50.44081745177116
 31
0.0
 12
22.499999999999993
 22
49.55918254822884
 32
0.0
 13
22.499999999999993
 23
49.55918254822884
 33
0.0
  0
SOLID
  5
120F
100
AcDbEntity
  8
Bemassung
  6
ByLayer
 62
   256
370
                                       -1
100
AcDbTrace
 10
260
 20
50
 30
0.0
 11
257.5
 21
49.55918254822884
 31
0.0
 12
257.5
 22
50.44081745177116
 32
0.0
 13
257.5
 23
50.44081745177116
 33
0.0
  0
LINE
  5
1210
100
AcDbEntity
  8
Bemassung
  6
ByLayer
 62
   256
370
                                       -1
100
AcDbLine
 10
22.499999999999993
 20
50
 30
0.0
 11
257.5
 21
50
 31
0.0
  0
ENDBLK
  5
51A
330
518
100
AcDbEntity
  8
0
100
AcDbBlockEnd
  0
BLOCK
  5
A6A
330
A69
100
AcDbEntity
  8
0
100
AcDbBlockBegin
  2
*D1324
 70
     0
 10
0
 20
0
 30
0.0
  3
*D1324
  1

  0
MTEXT
  5
1211
100
AcDbEntity
  8
Bemassung
  6
ByLayer
 62
   256
370
                                       -1
100
AcDbMText
 10
140
 20
12.291625
 30
0.0
 40
2.5
 41
0
 44
1
  1
2000
  7
Standard
 71
     5
 72
     5
 73
     1
 11
1
 21
0
 31
0.0
  0
LINE
  5
1212
100
AcDbEntity
  8
Bemassung
  6
ByLayer
 62
   256
370
                                       -1
100
AcDbLine
 10
19.999999999999993
 20
49.375
 30
0.0
 11
19.99999999999999
 21
8.75
 31
0.0
  0
LINE
  5
1213
100
AcDbEntity
  8
Bemassung
  6
ByLayer
 62
   256
370
                                       -1
100
AcDbLine
 10
260
 20
49.375
 30
0.0
 11
260
 21
8.75
 31
0.0
  0
SOLID
  5
1214
100
AcDbEntity
  8
Bemassung
  6
ByLayer
 62
   256
370
                                       -1
100
AcDbTrace
 10
19.99999999999999
 20
10
 30
0.0
 11
22.49999999999999
 21
10.440817451771162
 31
0.0
 12
22.49999999999999
 22
9.559182548228838
 32
0.0
 13
22.49999999999999
 23
9.559182548228838
 33
0.0
  0
SOLID
  5
1215
100
AcDbEntity
  8
Bemassung
  6
ByLayer
 62
   256
370
                                       -1
100
AcDbTrace
 10
260
 20
10
 30
0.0
 11
257.5
 21
9.559182548228836
 31
0.0
 12
257.5
 22
10.440817451771162
 32
0.0
 13
257.5
 23
10.440817451771162
 33
0.0
  0
LINE
  5
1216
100
AcDbEntity
  8
Bemassung
  6
ByLayer
 62
   256
370
                                       -1
100
AcDbLine
 10
22.49999999999999
 20
10
 30
0.0
 11
257.5
 21
10
 31
0.0
  0
ENDBLK
  5
A6B
330
A69
100
AcDbEntity
  8
0
100
AcDbBlockEnd
  0
BLOCK
  5
B5F
330
B5E
100
AcDbEntity
  8
0
100
AcDbBlockBegin
  2
*D659
 70
     0
 10
0
 20
0
 30
0.0
  3
*D659
  1

  0
MTEXT
  5
1217
100
AcDbEntity
  8
Bemassung
  6
ByLayer
 62
   256
370
                                                -1
100
AcDbMText
 10
7.342627155303436
 20
65
 30
0.0
 40
2.5
 41
0
 44
1
  1
D30
  7
Standard
 71
     5
 72
     5
 73
     1
 11
6.123233995736766e-17
 21
1
 31
0.0
  0
LINE
  5
1218
100
AcDbEntity
  8
Bemassung
  6
ByLayer
 62
   256
370
                                                -1
100
AcDbLine
 10
19.375
 20
80
 30
0.0
 11
8.38425215530344
 21
80
 31
0.0
  0
LINE
  5
1219
100
AcDbEntity
  8
Bemassung
  6
ByLayer
 62
   256
370
                                                -1
100
AcDbLine
 10
19.375
 20
50
 30
0.0
 11
8.384252155303434
 21
50
 31
0.0
  0
SOLID
  5
121A
100
AcDbEntity
  8
Bemassung
  6
ByLayer
 62
   256
370
                                                -1
100
AcDbTrace
 10
9.63425215530344
 20
80
 30
0.0
 11
10.075069607074601
 21
77.5
 31
0.0
 12
9.193434703532278
 22
77.5
 32
0.0
 13
9.193434703532278
 23
77.5
 33
0.0
  0
SOLID
  5
121B
100
AcDbEntity
  8
Bemassung
  6
ByLayer
 62
   256
370
                                                -1
100
AcDbTrace
 10
9.634252155303434
 20
50
 30
0.0
 11
9.193434703532272
 21
52.5
 31
0.0
 12
10.075069607074596
 22
52.5
 32
0.0
 13
10.075069607074596
 23
52.5
 33
0.0
  0
LINE
  5
121C
100
AcDbEntity
  8
Bemassung
  6
ByLayer
 62
   256
370
                                                -1
100
AcDbLine
 10
9.63425215530344
 20
77.5
 30
0.0
 11
9.634252155303434
 21
52.5
 31
0.0
  0
ENDBLK
  5
B60
330
B5E
100
AcDbEntity
  8
0
100
AcDbBlockEnd
  0
BLOCK
  5
B73
330
B72
100
AcDbEntity
  8
0
100
AcDbBlockBegin
  2
*D1261
 70
     0
 10
0
 20
0
 30
0.0
  3
*D1261
  1

  0
MTEXT
  5
121D
100
AcDbEntity
  8
Bemassung
  6
ByLayer
 62
   256
370
                                       -1
100
AcDbMText
 10
85
 20
22.291625
 30
0.0
 40
2.5
 41
0
 44
1
  1
D8
  7
Standard
 71
     5
 72
     5
 73
     1
 11
1
 21
0
 31
0.0
  0
LINE
  5
121E
100
AcDbEntity
  8
Bemassung
  6
ByLayer
 62
   256
370
                                       -1
100
AcDbLine
 10
80
 20
49.375
 30
0.0
 11
80
 21
18.75
 31
0.0
  0
LINE
  5
121F
100
AcDbEntity
  8
Bemassung
  6
ByLayer
 62
   256
370
                                       -1
100
AcDbLine
 10
90
 20
48.75
 30
0.0
 11
90
 21
18.75
 31
0.0
  0
SOLID
  5
1220
100
AcDbEntity
  8
Bemassung
  6
ByLayer
 62
   256
370
                                       -1
100
AcDbTrace
 10
80
 20
20
 30
0.0
 11
82.5
 21
20.440817451771164
 31
0.0
 12
82.5
 22
19.559182548228836
 32
0.0
 13
82.5
 23
19.559182548228836
 33
0.0
  0
SOLID
  5
1221
100
AcDbEntity
  8
Bemassung
  6
ByLayer
 62
   256
370
                                       -1
100
AcDbTrace
 10
90
 20
20
 30
0.0
 11
87.5
 21
19.559182548228836
 31
0.0
 12
87.5
 22
20.440817451771164
 32
0.0
 13
87.5
 23
20.440817451771164
 33
0.0
  0
LINE
  5
1222
100
AcDbEntity
  8
Bemassung
  6
ByLayer
 62
   256
370
                                       -1
100
AcDbLine
 10
82.5
 20
20
 30
0.0
 11
87.5
 21
20
 31
0.0
  0
ENDBLK
  5
B74
330
B72
100
AcDbEntity
  8
0
100
AcDbBlockEnd
  0
BLOCK
  5
B87
330
B86
100
AcDbEntity
  8
0
100
AcDbBlockBegin
  2
*D1345
 70
     0
 10
0
 20
0
 30
0.0
  3
*D1345
  1

  0
MTEXT
  5
1223
100
AcDbEntity
  8
Bemassung
  6
ByLayer
 62
   256
370
                                       -1
100
AcDbMText
 10
273.2562237819814
 20
65
 30
0.0
 40
2.5
 41
0
 44
1
  1
D60
  7
Standard
 71
     5
 72
     5
 73
     1
 11
6.123233995736766e-17
 21
1
 31
0.0
  0
LINE
  5
1224
100
AcDbEntity
  8
Bemassung
  6
ByLayer
 62
   256
370
                                       -1
100
AcDbLine
 10
262.625
 20
95
 30
0.0
 11
276.79784878198143
 21
95
 31
0.0
  0
LINE
  5
1225
100
AcDbEntity
  8
Bemassung
  6
ByLayer
 62
   256
370
                                       -1
100
AcDbLine
 10
262.625
 20
35
 30
0.0
 11
276.79784878198143
 21
35
 31
0.0
  0
SOLID
  5
1226
100
AcDbEntity
  8
Bemassung
  6
ByLayer
 62
   256
370
                                       -1
100
AcDbTrace
 10
275.54784878198143
 20
95
 30
0.0
 11
275.9886662337526
 21
92.5
 31
0.0
 12
275.10703133021025
 22
92.5
 32
0.0
 13
275.10703133021025
 23
92.5
 33
0.0
  0
SOLID
  5
1227
100
AcDbEntity
  8
Bemassung
  6
ByLayer
 62
   256
370
                                       -1
100
AcDbTrace
 10
275.54784878198143
 20
35
 30
0.0
 11
275.10703133021025
 21
37.5
 31
0.0
 12
275.9886662337526
 22
37.5
 32
0.0
 13
275.9886662337526
 23
37.5
 33
0.0
  0
LINE
  5
1228
100
AcDbEntity
  8
Bemassung
  6
ByLayer
 62
   256
370
                                       -1
100
AcDbLine
 10
275.54784878198143
 20
92.5
 30
0.0
 11
275.54784878198143
 21
37.5
 31
0.0
  0
ENDBLK
  5
B88
330
B86
100
AcDbEntity
  8
0
100
AcDbBlockEnd
  0
BLOCK
  5
B9B
330
B9A
100
AcDbEntity
  8
0
100
AcDbBlockBegin
  2
*D1366
 70
     0
 10
0
 20
0
 30
0.0
  3
*D1366
  1

  0
MTEXT
  5
1229
100
AcDbEntity
  8
Bemassung
  6
ByLayer
 62
   256
370
                                       -1
100
AcDbMText
 10
268.4583333333333
 20
107.82089077174717
 30
0.0
 40
2.5
 41
0
 44
1
  1
2
  7
Standard
 71
     5
 72
     5
 73
     1
 11
1
 21
0
 31
0.0
  0
LINE
  5
122A
100
AcDbEntity
  8
Bemassung
  6
ByLayer
 62
   256
370
                                       -1
100
AcDbLine
 10
260
 20
95.625
 30
0.0
 11
260
 21
106.77926577174718
 31
0.0
  0
LINE
  5
122B
100
AcDbEntity
  8
Bemassung
  6
ByLayer
 62
   256
370
                                       -1
100
AcDbLine
 10
262
 20
95.625
 30
0.0
 11
262
 21
106.77926577174718
 31
0.0
  0
SOLID
  5
122C
100
AcDbEntity
  8
Bemassung
  6
ByLayer
 62
   256
370
                                       -1
100
AcDbTrace
 10
260
 20
105.52926577174718
 30
0.0
 11
257.5
 21
105.08844831997601
 31
0.0
 12
257.5
 22
105.97008322351834
 32
0.0
 13
257.5
 23
105.97008322351834
 33
0.0
  0
SOLID
  5
122D
100
AcDbEntity
  8
Bemassung
  6
ByLayer
 62
   256
370
                                       -1
100
AcDbTrace
 10
262
 20
105.52926577174718
 30
0.0
 11
264.5
 21
105.97008322351834
 31
0.0
 12
264.5
 22
105.08844831997601
 32
0.0
 13
264.5
 23
105.08844831997601
 33
0.0
  0
LINE
  5
122E
100
AcDbEntity
  8
Bemassung
  6
ByLayer
 62
   256
370
                                       -1
100
AcDbLine
 10
260
 20
105.52926577174718
 30
0.0
 11
262
 21
105.52926577174718
 31
0.0
  0
LINE
  5
122F
100
AcDbEntity
  8
Bemassung
  6
ByLayer
 62
   256
370
                                       -1
100
AcDbLine
 10
257.5
 20
105.52926577174718
 30
0.0
 11
255
 21
105.52926577174718
 31
0.0
  0
LINE
  5
1230
100
AcDbEntity
  8
Bemassung
  6
ByLayer
 62
   256
370
                                       -1
100
AcDbLine
 10
264.5
 20
105.52926577174718
 30
0.0
 11
269.91666666666663
 21
105.52926577174718
 31
0.0
  0
ENDBLK
  5
B9C
330
B9A
100
AcDbEntity
  8
0
100
AcDbBlockEnd
  0
BLOCK
  5
BAF
330
BAE
100
AcDbEntity
  8
0
100
AcDbBlockBegin
  2
*D1387
 70
     0
 10
0
 20
0
 30
0.0
  3
*D1387
  1

  0
MTEXT
  5
1231
100
AcDbEntity
  8
Bemassung
  6
ByLayer
 62
   256
370
                                       -1
100
AcDbMText
 10
228.5330130974809
 20
65
 30
0.0
 40
2.5
 41
0
 44
1
  1
D26
  7
Standard
 71
     5
 72
     5
 73
     1
 11
6.123233995736766e-17
 21
1
 31
0.0
  0
LINE
  5
1232
100
AcDbEntity
  8
Bemassung
  6
ByLayer
 62
   256
370
                                       -1
100
AcDbLine
 10
220.68076272405582
 20
78
 30
0.0
 11
232.07463809748091
 21
78
 31
0.0
  0
LINE
  5
1233
100
AcDbEntity
  8
Bemassung
  6
ByLayer
 62
   256
370
                                       -1
100
AcDbLine
 10
220.68076272405582
 20
52.00000000000001
 30
0.0
 11
232.07463809748091
 21
52.00000000000001
 31
0.0
  0
SOLID
  5
1234
100
AcDbEntity
  8
Bemassung
  6
ByLayer
 62
   256
370
                                       -1
100
AcDbTrace
 10
230.82463809748091
 20
78
 30
0.0
 11
231.26545554925207
 21
75.5
 31
0.0
 12
230.38382064570976
 22
75.5
 32
0.0
 13
230.38382064570976
 23
75.5
 33
0.0
  0
SOLID
  5
1235
100
AcDbEntity
  8
Bemassung
  6
ByLayer
 62
   256
370
                                       -1
100
AcDbTrace
 10
230.82463809748091
 20
52.00000000000001
 30
0.0
 11
230.38382064570976
 21
54.50000000000001
 31
0.0
 12
231.26545554925207
 22
54.50000000000001
 32
0.0
 13
231.26545554925207
 23
54.50000000000001
 33
0.0
  0
LINE
  5
1236
100
AcDbEntity
  8
Bemassung
  6
ByLayer
 62
   256
370
                                       -1
100
AcDbLine
 10
230.82463809748091
 20
75.5
 30
0.0
 11
230.82463809748091
 21
54.50000000000001
 31
0.0
  0
ENDBLK
  5
BB0
330
BAE
100
AcDbEntity
  8
0
100
AcDbBlockEnd
  0
BLOCK
  5
BC3
330
BC2
100
AcDbEntity
  8
0
100
AcDbBlockBegin
  2
*D2745
 70
     0
 10
0
 20
0
 30
0.0
  3
*D2745
  1

  0
MTEXT
  5
1237
100
AcDbEntity
  8
Bemassung
  6
ByLayer
 62
   256
370
                        -1
100
AcDbMText
 10
140
 20
12.291625
 30
0.0
 40
2.5
 41
0
 44
1
  1
2000
  7
Standard
 71
     5
 72
     5
 73
     1
 11
1
 21
0
 31
0.0
  0
LINE
  5
1238
100
AcDbEntity
  8
Bemassung
  6
ByLayer
 62
   256
370
                        -1
100
AcDbLine
 10
19.999999999999993
 20
49.375
 30
0.0
 11
19.99999999999999
 21
8.75
 31
0.0
  0
LINE
  5
1239
100
AcDbEntity
  8
Bemassung
  6
ByLayer
 62
   256
370
                        -1
100
AcDbLine
 10
260
 20
49.375
 30
0.0
 11
260
 21
8.75
 31
0.0
  0
SOLID
  5
123A
100
AcDbEntity
  8
Bemassung
  6
ByLayer
 62
   256
370
                        -1
100
AcDbTrace
 10
19.99999999999999
 20
10
 30
0.0
 11
22.49999999999999
 21
10.440817451771162
 31
0.0
 12
22.49999999999999
 22
9.559182548228838
 32
0.0
 13
22.49999999999999
 23
9.559182548228838
 33
0.0
  0
SOLID
  5
123B
100
AcDbEntity
  8
Bemassung
  6
ByLayer
 62
   256
370
                        -1
100
AcDbTrace
 10
260
 20
10
 30
0.0
 11
257.5
 21
9.559182548228836
 31
0.0
 12
257.5
 22
10.440817451771162
 32
0.0
 13
257.5
 23
10.440817451771162
 33
0.0
  0
LINE
  5
123C
100
AcDbEntity
  8
Bemassung
  6
ByLayer
 62
   256
370
                        -1
100
AcDbLine
 10
22.49999999999999
 20
10
 30
0.0
 11
257.5
 21
10
 31
0.0
  0
ENDBLK
  5
BC4
330
BC2
100
AcDbEntity
  8
0
100
AcDbBlockEnd
  0
BLOCK
  5
CF8
330
CF7
100
AcDbEntity
  8
0
100
AcDbBlockBegin
  2
*D3318
 70
     0
 10
0
 20
0
 30
0.0
  3
*D3318
  1

  0
MTEXT
  5
123D
100
AcDbEntity
  8
Bemassung
  6
ByLayer
 62
   256
370
               -1
100
AcDbMText
 10
6.708375
 20
65
 30
0.0
 40
2.5
 41
0
 44
1
  1
30
  7
Standard
 71
     5
 72
     5
 73
     1
 11
6.123233995736766e-17
 21
1
 31
0.0
  0
LINE
  5
123E
100
AcDbEntity
  8
Bemassung
  6
ByLayer
 62
   256
370
               -1
100
AcDbLine
 10
19.374999999999993
 20
50
 30
0.0
 11
7.75
 21
50
 31
0.0
  0
LINE
  5
123F
100
AcDbEntity
  8
Bemassung
  6
ByLayer
 62
   256
370
               -1
100
AcDbLine
 10
19.375
 20
79.99999999999999
 30
0.0
 11
7.750000000000002
 21
79.99999999999999
 31
0.0
  0
SOLID
  5
1240
100
AcDbEntity
  8
Bemassung
  6
ByLayer
 62
   256
370
               -1
100
AcDbTrace
 10
9
 20
50
 30
0.0
 11
8.559182548228838
 21
52.5
 31
0.0
 12
9.440817451771162
 22
52.5
 32
0.0
 13
9.440817451771162
 23
52.5
 33
0.0
  0
SOLID
  5
1241
100
AcDbEntity
  8
Bemassung
  6
ByLayer
 62
   256
370
               -1
100
AcDbTrace
 10
9.000000000000002
 20
79.99999999999999
 30
0.0
 11
9.440817451771164
 21
77.49999999999999
 31
0.0
 12
8.55918254822884
 22
77.49999999999999
 32
0.0
 13
8.55918254822884
 23
77.49999999999999
 33
0.0
  0
LINE
  5
1242
100
AcDbEntity
  8
Bemassung
  6
ByLayer
 62
   256
370
               -1
100
AcDbLine
 10
9
 20
52.5
 30
0.0
 11
9.000000000000002
 21
77.49999999999999
 31
0.0
  0
ENDBLK
  5
CF9
330
CF7
100
AcDbEntity
  8
0
100
AcDbBlockEnd
  0
BLOCK
  5
D22
330
D21
100
AcDbEntity
  8
0
100
AcDbBlockBegin
  2
*D3360
 70
     0
 10
0
 20
0
 30
0.0
  3
*D3360
  1

  0
MTEXT
  5
1243
100
AcDbEntity
  8
Bemassung
  6
ByLayer
 62
   256
370
               -1
100
AcDbMText
 10
85
 20
26.291625
 30
0.0
 40
2.5
 41
0
 44
1
  1
10
  7
Standard
 71
     5
 72
     5
 73
     1
 11
1
 21
0
 31
0.0
  0
LINE
  5
1244
100
AcDbEntity
  8
Bemassung
  6
ByLayer
 62
   256
370
               -1
100
AcDbLine
 10
80
 20
49.375
 30
0.0
 11
80
 21
22.75
 31
0.0
  0
LINE
  5
1245
100
AcDbEntity
  8
Bemassung
  6
ByLayer
 62
   256
370
               -1
100
AcDbLine
 10
90
 20
49.375
 30
0.0
 11
90
 21
22.75
 31
0.0
  0
SOLID
  5
1246
100
AcDbEntity
  8
Bemassung
  6
ByLayer
 62
   256
370
               -1
100
AcDbTrace
 10
80
 20
24
 30
0.0
 11
82.5
 21
24.440817451771164
 31
0.0
 12
82.5
 22
23.559182548228836
 32
0.0
 13
82.5
 23
23.559182548228836
 33
0.0
  0
SOLID
  5
1247
100
AcDbEntity
  8
Bemassung
  6
ByLayer
 62
   256
370
               -1
100
AcDbTrace
 10
90
 20
24
 30
0.0
 11
87.5
 21
23.559182548228836
 31
0.0
 12
87.5
 22
24.440817451771164
 32
0.0
 13
87.5
 23
24.440817451771164
 33
0.0
  0
LINE
  5
1248
100
AcDbEntity
  8
Bemassung
  6
ByLayer
 62
   256
370
               -1
100
AcDbLine
 10
82.5
 20
24
 30
0.0
 11
87.5
 21
24
 31
0.0
  0
ENDBLK
  5
D23
330
D21
100
AcDbEntity
  8
0
100
AcDbBlockEnd
  0
BLOCK
  5
D37
330
D36
100
AcDbEntity
  8
0
100
AcDbBlockBegin
  2
*D3381
 70
     0
 10
0
 20
0
 30
0.0
  3
*D3381
  1

  0
MTEXT
  5
1249
100
AcDbEntity
  8
Bemassung
  6
ByLayer
 62
   256
370
               -1
100
AcDbMText
 10
85
 20
24.291625
 30
0.0
 40
2.5
 41
0
 44
1
  1
10
  7
Standard
 71
     5
 72
     5
 73
     1
 11
1
 21
0
 31
0.0
  0
LINE
  5
124A
100
AcDbEntity
  8
Bemassung
  6
ByLayer
 62
   256
370
               -1
100
AcDbLine
 10
80
 20
49.375
 30
0.0
 11
80
 21
20.75
 31
0.0
  0
LINE
  5
124B
100
AcDbEntity
  8
Bemassung
  6
ByLayer
 62
   256
370
               -1
100
AcDbLine
 10
90
 20
49.375
 30
0.0
 11
90
 21
20.75
 31
0.0
  0
SOLID
  5
124C
100
AcDbEntity
  8
Bemassung
  6
ByLayer
 62
   256
370
               -1
100
AcDbTrace
 10
80
 20
22
 30
0.0
 11
82.5
 21
22.440817451771164
 31
0.0
 12
82.5
 22
21.559182548228836
 32
0.0
 13
82.5
 23
21.559182548228836
 33
0.0
  0
SOLID
  5
124D
100
AcDbEntity
  8
Bemassung
  6
ByLayer
 62
   256
370
               -1
100
AcDbTrace
 10
90
 20
22
 30
0.0
 11
87.5
 21
21.559182548228836
 31
0.0
 12
87.5
 22
22.440817451771164
 32
0.0
 13
87.5
 23
22.440817451771164
 33
0.0
  0
LINE
  5
124E
100
AcDbEntity
  8
Bemassung
  6
ByLayer
 62
   256
370
               -1
100
AcDbLine
 10
82.5
 20
22
 30
0.0
 11
87.5
 21
22
 31
0.0
  0
ENDBLK
  5
D38
330
D36
100
AcDbEntity
  8
0
100
AcDbBlockEnd
  0
BLOCK
  5
EE1
330
EE0
100
AcDbEntity
  8
0
100
AcDbBlockBegin
  2
*D3486
 70
     0
 10
0
 20
0
 30
0.0
  3
*D3486
  1

  0
MTEXT
  5
124F
100
AcDbEntity
  8
Bemassung
  6
ByLayer
 62
   256
370
               -1
100
AcDbMText
 10
140
 20
12.291625
 30
0.0
 40
2.5
 41
0
 44
1
  1
2000
  7
Standard
 71
     5
 72
     5
 73
     1
 11
1
 21
0
 31
0.0
  0
LINE
  5
1250
100
AcDbEntity
  8
Bemassung
  6
ByLayer
 62
   256
370
               -1
100
AcDbLine
 10
19.999999999999993
 20
49.375
 30
0.0
 11
19.99999999999999
 21
8.75
 31
0.0
  0
LINE
  5
1251
100
AcDbEntity
  8
Bemassung
  6
ByLayer
 62
   256
370
               -1
100
AcDbLine
 10
260
 20
49.375
 30
0.0
 11
260
 21
8.75
 31
0.0
  0
SOLID
  5
1252
100
AcDbEntity
  8
Bemassung
  6
ByLayer
 62
   256
370
               -1
100
AcDbTrace
 10
19.99999999999999
 20
10
 30
0.0
 11
22.49999999999999
 21
10.440817451771162
 31
0.0
 12
22.49999999999999
 22
9.559182548228838
 32
0.0
 13
22.49999999999999
 23
9.559182548228838
 33
0.0
  0
SOLID
  5
1253
100
AcDbEntity
  8
Bemassung
  6
ByLayer
 62
   256
370
               -1
100
AcDbTrace
 10
260
 20
10
 30
0.0
 11
257.5
 21
9.559182548228836
 31
0.0
 12
257.5
 22
10.440817451771162
 32
0.0
 13
257.5
 23
10.440817451771162
 33
0.0
  0
LINE
  5
1254
100
AcDbEntity
  8
Bemassung
  6
ByLayer
 62
   256
370
               -1
100
AcDbLine
 10
22.49999999999999
 20
10
 30
0.0
 11
257.5
 21
10
 31
0.0
  0
ENDBLK
  5
EE2
330
EE0
100
AcDbEntity
  8
0
100
AcDbBlockEnd
  0
BLOCK
  5
EF6
330
EF5
100
AcDbEntity
  8
0
100
AcDbBlockBegin
  2
*D3828
 70
     0
 10
0
 20
0
 30
0.0
  3
*D3828
  1

  0
MTEXT
  5
1255
100
AcDbEntity
  8
Bemassung
  6
ByLayer
 62
   256
370
            -1
100
AcDbMText
 10
140
 20
23.291625
 30
0.0
 40
2.5
 41
0
 44
1
  1
240
  7
Standard
 71
     5
 72
     5
 73
     1
 11
1
 21
0
 31
0.0
  0
LINE
  5
1256
100
AcDbEntity
  8
Bemassung
  6
ByLayer
 62
   256
370
            -1
100
AcDbLine
 10
19.999999999999993
 20
49.375
 30
0.0
 11
19.999999999999993
 21
19.75
 31
0.0
  0
LINE
  5
1257
100
AcDbEntity
  8
Bemassung
  6
ByLayer
 62
   256
370
            -1
100
AcDbLine
 10
260
 20
49.375
 30
0.0
 11
260
 21
19.75
 31
0.0
  0
SOLID
  5
1258
100
AcDbEntity
  8
Bemassung
  6
ByLayer
 62
   256
370
            -1
100
AcDbTrace
 10
19.999999999999993
 20
21
 30
0.0
 11
22.499999999999993
 21
21.440817451771164
 31
0.0
 12
22.499999999999993
 22
20.559182548228836
 32
0.0
 13
22.499999999999993
 23
20.559182548228836
 33
0.0
  0
SOLID
  5
1259
100
AcDbEntity
  8
Bemassung
  6
ByLayer
 62
   256
370
            -1
100
AcDbTrace
 10
260
 20
21
 30
0.0
 11
257.5
 21
20.559182548228836
 31
0.0
 12
257.5
 22
21.440817451771164
 32
0.0
 13
257.5
 23
21.440817451771164
 33
0.0
  0
LINE
  5
125A
100
AcDbEntity
  8
Bemassung
  6
ByLayer
 62
   256
370
            -1
100
AcDbLine
 10
22.499999999999993
 20
21
 30
0.0
 11
257.5
 21
21
 31
0.0
  0
ENDBLK
  5
EF7
330
EF5
100
AcDbEntity
  8
0
100
AcDbBlockEnd
  0
BLOCK
  5
128E
330
128D
100
AcDbEntity
  8
Bemassung
100
AcDbBlockBegin
  2
*D3339
 70
     0
 10
0
 20
0
 30
0.0
  3
*D3339
  1

  0
MTEXT
  5
1290
100
AcDbEntity
  8
Bemassung
  6
ByLayer
 62
   256
370
               -1
100
AcDbMText
 10
7.708375000000001
 20
65
 30
0.0
 40
2.5
 41
0
 44
1
  1
Ø 30
  7
Standard
 71
     5
 72
     5
 73
     1
 11
6.123233995736766e-17
 21
1
 31
0.0
  0
LINE
  5
1291
100
AcDbEntity
  8
Bemassung
  6
ByLayer
 62
   256
370
               -1
100
AcDbLine
 10
19.374999999999993
 20
50
 30
0.0
 11
8.75
 21
50
 31
0.0
  0
LINE
  5
1292
100
AcDbEntity
  8
Bemassung
  6
ByLayer
 62
   256
370
               -1
100
AcDbLine
 10
19.375
 20
79.99999999999999
 30
0.0
 11
8.750000000000002
 21
79.99999999999999
 31
0.0
  0
SOLID
  5
1293
100
AcDbEntity
  8
Bemassung
  6
ByLayer
 62
   256
370
               -1
100
AcDbTrace
 10
10
 20
50
 30
0.0
 11
9.559182548228838
 21
52.5
 31
0.0
 12
10.440817451771162
 22
52.5
 32
0.0
 13
10.440817451771162
 23
52.5
 33
0.0
  0
SOLID
  5
1294
100
AcDbEntity
  8
Bemassung
  6
ByLayer
 62
   256
370
               -1
100
AcDbTrace
 10
10.000000000000002
 20
79.99999999999999
 30
0.0
 11
10.440817451771164
 21
77.49999999999999
 31
0.0
 12
9.55918254822884
 22
77.49999999999999
 32
0.0
 13
9.55918254822884
 23
77.49999999999999
 33
0.0
  0
LINE
  5
1295
100
AcDbEntity
  8
Bemassung
  6
ByLayer
 62
   256
370
               -1
100
AcDbLine
 10
10
 20
52.5
 30
0.0
 11
10.000000000000002
 21
77.49999999999999
 31
0.0
  0
ENDBLK
  5
128F
330
128D
100
AcDbEntity
  8
0
100
AcDbBlockEnd
  0
BLOCK
  5
12A2
330
12A1
100
AcDbEntity
  8
Bemassung
100
AcDbBlockBegin
  2
*D3402
 70
     0
 10
0
 20
0
 30
0.0
  3
*D3402
  1

  0
MTEXT
  5
12A4
100
AcDbEntity
  8
Bemassung
  6
ByLayer
 62
   256
370
               -1
100
AcDbMText
 10
85
 20
32.291625
 30
0.0
 40
2.5
 41
0
 44
1
  1
Ø 8
  7
Standard
 71
     5
 72
     5
 73
     1
 11
1
 21
0
 31
0.0
  0
LINE
  5
12A5
100
AcDbEntity
  8
Bemassung
  6
ByLayer
 62
   256
370
               -1
100
AcDbLine
 10
80
 20
49.375
 30
0.0
 11
80
 21
28.75
 31
0.0
  0
LINE
  5
12A6
100
AcDbEntity
  8
Bemassung
  6
ByLayer
 62
   256
370
               -1
100
AcDbLine
 10
90
 20
49.375
 30
0.0
 11
90
 21
28.75
 31
0.0
  0
SOLID
  5
12A7
100
AcDbEntity
  8
Bemassung
  6
ByLayer
 62
   256
370
               -1
100
AcDbTrace
 10
80
 20
30
 30
0.0
 11
82.5
 21
30.440817451771164
 31
0.0
 12
82.5
 22
29.559182548228836
 32
0.0
 13
82.5
 23
29.559182548228836
 33
0.0
  0
SOLID
  5
12A8
100
AcDbEntity
  8
Bemassung
  6
ByLayer
 62
   256
370
               -1
100
AcDbTrace
 10
90
 20
30
 30
0.0
 11
87.5
 21
29.559182548228836
 31
0.0
 12
87.5
 22
30.440817451771164
 32
0.0
 13
87.5
 23
30.440817451771164
 33
0.0
  0
LINE
  5
12A9
100
AcDbEntity
  8
Bemassung
  6
ByLayer
 62
   256
370
               -1
100
AcDbLine
 10
82.5
 20
30
 30
0.0
 11
87.5
 21
30
 31
0.0
  0
ENDBLK
  5
12A3
330
12A1
100
AcDbEntity
  8
0
100
AcDbBlockEnd
  0
BLOCK
  5
12B6
330
12B5
100
AcDbEntity
  8
Bemassung
100
AcDbBlockBegin
  2
*D3423
 70
     0
 10
0
 20
0
 30
0.0
  3
*D3423
  1

  0
MTEXT
  5
12B8
100
AcDbEntity
  8
Bemassung
  6
ByLayer
 62
   256
370
               -1
100
AcDbMText
 10
269.708375
 20
65
 30
0.0
 40
2.5
 41
0
 44
1
  1
Ø 60
  7
Standard
 71
     5
 72
     5
 73
     1
 11
6.123233995736766e-17
 21
1
 31
0.0
  0
LINE
  5
12B9
100
AcDbEntity
  8
Bemassung
  6
ByLayer
 62
   256
370
               -1
100
AcDbLine
 10
262.625
 20
35
 30
0.0
 11
273.25
 21
35
 31
0.0
  0
LINE
  5
12BA
100
AcDbEntity
  8
Bemassung
  6
ByLayer
 62
   256
370
               -1
100
AcDbLine
 10
262.625
 20
95
 30
0.0
 11
273.25
 21
95
 31
0.0
  0
SOLID
  5
12BB
100
AcDbEntity
  8
Bemassung
  6
ByLayer
 62
   256
370
               -1
100
AcDbTrace
 10
272
 20
35
 30
0.0
 11
271.5591825482288
 21
37.5
 31
0.0
 12
272.4408174517712
 22
37.5
 32
0.0
 13
272.4408174517712
 23
37.5
 33
0.0
  0
SOLID
  5
12BC
100
AcDbEntity
  8
Bemassung
  6
ByLayer
 62
   256
370
               -1
100
AcDbTrace
 10
272
 20
95
 30
0.0
 11
272.4408174517712
 21
92.5
 31
0.0
 12
271.5591825482288
 22
92.5
 32
0.0
 13
271.5591825482288
 23
92.5
 33
0.0
  0
LINE
  5
12BD
100
AcDbEntity
  8
Bemassung
  6
ByLayer
 62
   256
370
               -1
100
AcDbLine
 10
272
 20
37.5
 30
0.0
 11
272
 21
92.5
 31
0.0
  0
ENDBLK
  5
12B7
330
12B5
100
AcDbEntity
  8
0
100
AcDbBlockEnd
  0
BLOCK
  5
12CA
330
12C9
100
AcDbEntity
  8
Bemassung
100
AcDbBlockBegin
  2
*D3444
 70
     0
 10
0
 20
0
 30
0.0
  3
*D3444
  1

  0
MTEXT
  5
12CC
100
AcDbEntity
  8
Bemassung
  6
ByLayer
 62
   256
370
               -1
100
AcDbMText
 10
268.4583333333333
 20
105.291625
 30
0.0
 40
2.5
 41
0
 44
1
  1
2
  7
Standard
 71
     5
 72
     5
 73
     1
 11
1
 21
0
 31
0.0
  0
LINE
  5
12CD
100
AcDbEntity
  8
Bemassung
  6
ByLayer
 62
   256
370
               -1
100
AcDbLine
 10
260
 20
95.625
 30
0.0
 11
260
 21
104.25
 31
0.0
  0
LINE
  5
12CE
100
AcDbEntity
  8
Bemassung
  6
ByLayer
 62
   256
370
               -1
100
AcDbLine
 10
262
 20
95.625
 30
0.0
 11
262
 21
104.25
 31
0.0
  0
SOLID
  5
12CF
100
AcDbEntity
  8
Bemassung
  6
ByLayer
 62
   256
370
               -1
100
AcDbTrace
 10
260
 20
103
 30
0.0
 11
257.5
 21
102.55918254822883
 31
0.0
 12
257.5
 22
103.44081745177117
 32
0.0
 13
257.5
 23
103.44081745177117
 33
0.0
  0
SOLID
  5
12D0
100
AcDbEntity
  8
Bemassung
  6
ByLayer
 62
   256
370
               -1
100
AcDbTrace
 10
262
 20
103
 30
0.0
 11
264.5
 21
103.44081745177117
 31
0.0
 12
264.5
 22
102.55918254822883
 32
0.0
 13
264.5
 23
102.55918254822883
 33
0.0
  0
LINE
  5
12D1
100
AcDbEntity
  8
Bemassung
  6
ByLayer
 62
   256
370
               -1
100
AcDbLine
 10
260
 20
103
 30
0.0
 11
262
 21
103
 31
0.0
  0
LINE
  5
12D2
100
AcDbEntity
  8
Bemassung
  6
ByLayer
 62
   256
370
               -1
100
AcDbLine
 10
257.5
 20
103
 30
0.0
 11
255
 21
103
 31
0.0
  0
LINE
  5
12D3
100
AcDbEntity
  8
Bemassung
  6
ByLayer
 62
   256
370
               -1
100
AcDbLine
 10
264.5
 20
103
 30
0.0
 11
269.91666666666663
 21
103
 31
0.0
  0
ENDBLK
  5
12CB
330
12C9
100
AcDbEntity
  8
0
100
AcDbBlockEnd
  0
BLOCK
  5
12DE
330
12DD
100
AcDbEntity
  8
Bemassung
100
AcDbBlockBegin
  2
*D3465
 70
     0
 10
0
 20
0
 30
0.0
  3
*D3465
  1

  0
MTEXT
  5
12E0
100
AcDbEntity
  8
Bemassung
  6
ByLayer
 62
   256
370
               -1
100
AcDbMText
 10
219.708375
 20
65.00000000000001
 30
0.0
 40
2.5
 41
0
 44
1
  1
Ø 26
  7
Standard
 71
     5
 72
     5
 73
     1
 11
6.123233995736766e-17
 21
1
 31
0.0
  0
LINE
  5
12E1
100
AcDbEntity
  8
Bemassung
  6
ByLayer
 62
   256
370
               -1
100
AcDbLine
 10
215.625
 20
52
 30
0.0
 11
223.25
 21
52
 31
0.0
  0
LINE
  5
12E2
100
AcDbEntity
  8
Bemassung
  6
ByLayer
 62
   256
370
               -1
100
AcDbLine
 10
215.625
 20
78.00000000000003
 30
0.0
 11
223.25
 21
78.00000000000003
 31
0.0
  0
SOLID
  5
12E3
100
AcDbEntity
  8
Bemassung
  6
ByLayer
 62
   256
370
               -1
100
AcDbTrace
 10
222
 20
52
 30
0.0
 11
221.55918254822885
 21
54.5
 31
0.0
 12
222.44081745177115
 22
54.5
 32
0.0
 13
222.44081745177115
 23
54.5
 33
0.0
  0
SOLID
  5
12E4
100
AcDbEntity
  8
Bemassung
  6
ByLayer
 62
   256
370
               -1
100
AcDbTrace
 10
222
 20
78.00000000000003
 30
0.0
 11
222.44081745177115
 21
75.50000000000003
 31
0.0
 12
221.55918254822885
 22
75.50000000000003
 32
0.0
 13
221.55918254822885
 23
75.50000000000003
 33
0.0
  0
LINE
  5
12E5
100
AcDbEntity
  8
Bemassung
  6
ByLayer
 62
   256
370
               -1
100
AcDbLine
 10
222
 20
54.5
 30
0.0
 11
222
 21
75.50000000000003
 31
0.0
  0
ENDBLK
  5
12DF
330
12DD
100
AcDbEntity
  8
0
100
AcDbBlockEnd
  0
BLOCK
  5
12F2
330
12F1
100
AcDbEntity
  8
Bemassung
100
AcDbBlockBegin
  2
*D3849
 70
     0
 10
0
 20
0
 30
0.0
  3
*D3849
  1

  0
MTEXT
  5
12F4
100
AcDbEntity
  8
Bemassung
  6
ByLayer
 62
   256
370
            -1
100
AcDbMText
 10
140
 20
22.291625
 30
0.0
 40
2.5
 41
0
 44
1
  1
2000
  7
Standard
 71
     5
 72
     5
 73
     1
 11
1
 21
0
 31
0.0
  0
LINE
  5
12F5
100
AcDbEntity
  8
Bemassung
  6
ByLayer
 62
   256
370
            -1
100
AcDbLine
 10
19.999999999999993
 20
49.375
 30
0.0
 11
19.99999999999999
 21
18.75
 31
0.0
  0
LINE
  5
12F6
100
AcDbEntity
  8
Bemassung
  6
ByLayer
 62
   256
370
            -1
100
AcDbLine
 10
260
 20
49.375
 30
0.0
 11
260
 21
18.75
 31
0.0
  0
SOLID
  5
12F7
100
AcDbEntity
  8
Bemassung
  6
ByLayer
 62
   256
370
            -1
100
AcDbTrace
 10
19.99999999999999
 20
20
 30
0.0
 11
22.49999999999999
 21
20.440817451771164
 31
0.0
 12
22.49999999999999
 22
19.559182548228836
 32
0.0
 13
22.49999999999999
 23
19.559182548228836
 33
0.0
  0
SOLID
  5
12F8
100
AcDbEntity
  8
Bemassung
  6
ByLayer
 62
   256
370
            -1
100
AcDbTrace
 10
260
 20
20
 30
0.0
 11
257.5
 21
19.559182548228836
 31
0.0
 12
257.5
 22
20.440817451771164
 32
0.0
 13
257.5
 23
20.440817451771164
 33
0.0
  0
LINE
  5
12F9
100
AcDbEntity
  8
Bemassung
  6
ByLayer
 62
   256
370
            -1
100
AcDbLine
 10
22.49999999999999
 20
20
 30
0.0
 11
257.5
 21
20
 31
0.0
  0
ENDBLK
  5
12F3
330
12F1
100
AcDbEntity
  8
0
100
AcDbBlockEnd
  0
ENDSEC
  0
SECTION
  2
ENTITIES
  0
LWPOLYLINE
  5
1E2
100
AcDbEntity
  8
Sichtbare Körperkanten
  6
ByLayer
 62
   256
370
                                                -1
100
AcDbPolyline
 90
     4
 70
     1
 43
0
 10
20
 20
50
 42
0
 10
80
 20
50
 42
0
 10
80
 20
52
 42
0
 10
20
 20
52
 42
0
1001
ACAD
1002
{
1000
0
1000
biiCADo_Rectangle
1000
10
1040
20
1000
20
1040
50
1000
45
1040
0
1000
46
1040
60
1000
47
1040
2
1000
91
1070
0
1000
51
1040
0
1000
49
1040
0
1000
50
1040
0
1002
}
  0
POINT
  5
28B
100
AcDbEntity
  8
0
  6
ByLayer
 62
   256
370
                                                -1
100
AcDbPoint
 10
222.53916453435647
 20
72.95370079798867
 30
0.0
  0
POINT
  5
28C
100
AcDbEntity
  8
0
  6
ByLayer
 62
   256
370
                                                -1
100
AcDbPoint
 10
222.53916453435647
 20
72.95370079798867
 30
0.0
  0
POINT
  5
28D
100
AcDbEntity
  8
0
  6
ByLayer
 62
   256
370
                                                -1
100
AcDbPoint
 10
224.30382316495928
 20
66.32440242251101
 30
0.0
  0
LINE
  5
2AB
100
AcDbEntity
  8
Sichtbare Körperkanten
  6
ByLayer
 62
   256
370
                                                -1
100
AcDbLine
 10
20
 20
80
 30
0.0
 11
20
 21
50
 31
0.0
  0
LINE
  5
2AC
100
AcDbEntity
  8
Sichtbare Körperkanten
  6
ByLayer
 62
   256
370
                                                -1
100
AcDbLine
 10
20
 20
50
 30
0.0
 11
20
 21
50
 31
0.0
  0
LWPOLYLINE
  5
44E
100
AcDbEntity
  8
Sichtbare Körperkanten
  6
ByLayer
 62
   256
370
                                          -1
100
AcDbPolyline
 90
     4
 70
     1
 43
0
 10
20
 20
80
 42
0
 10
20
 20
78
 42
0
 10
150
 20
77.99999999999994
 42
0
 10
150
 20
79.99999999999997
 42
0
1001
ACAD
1002
{
1000
0
1000
biiCADo_Rectangle
1000
10
1040
20
1000
20
1040
80
1000
45
1040
270
1000
46
1040
2
1000
47
1040
130
1000
91
1070
0
1000
51
1040
0
1000
49
1040
0
1000
50
1040
0
1002
}
  0
LWPOLYLINE
  5
44F
100
AcDbEntity
  8
Sichtbare Körperkanten
  6
ByLayer
 62
   256
370
                                          -1
100
AcDbPolyline
 90
     4
 70
     1
 43
0
 10
170
 20
50
 42
0
 10
260
 20
50
 42
0
 10
260
 20
52
 42
0
 10
170
 20
52
 42
0
1001
ACAD
1002
{
1000
0
1000
biiCADo_Rectangle
1000
10
1040
170
1000
20
1040
50
1000
45
1040
0
1000
46
1040
90
1000
47
1040
2
1000
91
1070
0
1000
51
1040
0
1000
49
1040
0
1000
50
1040
0
1002
}
  0
LWPOLYLINE
  5
450
100
AcDbEntity
  8
Sichtbare Körperkanten
  6
ByLayer
 62
   256
370
                                          -1
100
AcDbPolyline
 90
     4
 70
     1
 43
0
 10
170
 20
80
 42
0
 10
170
 20
78
 42
0
 10
260
 20
78.00000000000004
 42
0
 10
260
 20
79.99999999999997
 42
0
1001
ACAD
1002
{
1000
0
1000
biiCADo_Rectangle
1000
10
1040
170
1000
20
1040
80
1000
45
1040
270
1000
46
1040
2
1000
47
1040
90
1000
91
1070
0
1000
51
1040
0
1000
49
1040
0
1000
50
1040
0
1002
}
  0
LWPOLYLINE
  5
452
100
AcDbEntity
  8
Sichtbare Körperkanten
  6
ByLayer
 62
   256
370
                                          -1
100
AcDbPolyline
 90
     4
 70
     1
 43
0
 10
260
 20
35
 42
0
 10
262
 20
35
 42
0
 10
262
 20
95
 42
0
 10
260
 20
95
 42
0
1001
ACAD
1002
{
1000
0
1000
biiCADo_Rectangle
1000
10
1040
260
1000
20
1040
35
1000
45
1040
0
1000
46
1040
2
1000
47
1040
60
1000
91
1070
0
1000
51
1040
0
1000
49
1040
0
1000
50
1040
0
1002
}
  0
LINE
  5
58D
100
AcDbEntity
  8
Bemassung
  6
ByLayer
 62
   256
370
                                       -1
100
AcDbLine
 10
150
 20
83
 30
0.0
 11
150
 21
75
 31
0.0
  0
LINE
  5
599
100
AcDbEntity
  8
Bemassung
  6
ByLayer
 62
   256
370
                                       -1
100
AcDbLine
 10
150
 20
57
 30
0.0
 11
150
 21
46
 31
0.0
  0
LINE
  5
59B
100
AcDbEntity
  8
Bemassung
  6
ByLayer
 62
   256
370
                                       -1
100
AcDbLine
 10
170
 20
83
 30
0.0
 11
170
 21
65
 31
0.0
  0
LINE
  5
59C
100
AcDbEntity
  8
Bemassung
  6
ByLayer
 62
   256
370
                                       -1
100
AcDbLine
 10
170
 20
65
 30
0.0
 11
173
 21
63
 31
0.0
  0
LINE
  5
59D
100
AcDbEntity
  8
Bemassung
  6
ByLayer
 62
   256
370
                                       -1
100
AcDbLine
 10
173
 20
63
 30
0.0
 11
167
 21
59
 31
0.0
  0
LINE
  5
59E
100
AcDbEntity
  8
Bemassung
  6
ByLayer
 62
   256
370
                                       -1
100
AcDbLine
 10
167
 20
59
 30
0.0
 11
170
 21
57
 31
0.0
  0
LINE
  5
59F
100
AcDbEntity
  8
Bemassung
  6
ByLayer
 62
   256
370
                                       -1
100
AcDbLine
 10
170
 20
57
 30
0.0
 11
170
 21
46
 31
0.0
  0
HATCH
  5
6A2
100
AcDbEntity
  8
Bemassung
  6
ByLayer
 62
   256
370
                                    -1
100
AcDbHatch
 10
0
 20
0
 210
0
 220
0
 230
1
  2
ANSI37
 70
     0
 71
     0
 91
       1
 92
       1
 93
       4
 72
     1
 10
260
 20
35
 11
262
 21
35
 72
     1
 10
262
 20
35
 11
262
 21
95
 72
     1
 10
262
 20
95
 11
260
 21
95
 72
     1
 10
260
 20
95
 11
260
 21
35
 97
       0
 75
     0
 76
     1
 52
0
 41
1
 77
     0
 78
     2
 53
45
 43
0
 44
0
 45
-2.245064030267288
 46
2.2450640302672884
 79
     0
 53
135
 43
0
 44
0
 45
-2.2450640302672884
 46
-2.245064030267288
 79
     0
 98
     1
 10
0
 20
0
  0
LINE
  5
6A3
100
AcDbEntity
  8
Bemassung
  6
ByLayer
 62
   256
370
                                    -1
100
AcDbLine
 10
150
 20
75
 30
0.0
 11
153
 21
73
 31
0.0
  0
LINE
  5
6A4
100
AcDbEntity
  8
Bemassung
  6
ByLayer
 62
   256
370
                                    -1
100
AcDbLine
 10
153
 20
73
 30
0.0
 11
147
 21
69
 31
0.0
  0
LINE
  5
6A5
100
AcDbEntity
  8
Bemassung
  6
ByLayer
 62
   256
370
                                    -1
100
AcDbLine
 10
147
 20
69
 30
0.0
 11
150
 21
67
 31
0.0
  0
LINE
  5
6A6
100
AcDbEntity
  8
Bemassung
  6
ByLayer
 62
   256
370
                                    -1
100
AcDbLine
 10
150
 20
67
 30
0.0
 11
150
 21
57
 31
0.0
  0
LWPOLYLINE
  5
8AB
100
AcDbEntity
  8
Sichtbare Körperkanten
  6
ByLayer
 62
   256
370
                              -1
100
AcDbPolyline
 90
     4
 70
     1
 43
0
 10
90
 20
50
 42
0
 10
150
 20
50
 42
0
 10
150
 20
52
 42
0
 10
90
 20
52
 42
0
1001
ACAD
1002
{
1000
0
1000
biiCADo_Rectangle
1000
10
1040
90
1000
20
1040
50
1000
45
1040
0
1000
46
1040
60
1000
47
1040
2
1000
91
1070
0
1000
51
1040
0
1000
49
1040
0
1000
50
1040
0
1002
}
  0
HATCH
  5
8B4
100
AcDbEntity
  8
Bemassung
  6
ByLayer
 62
   256
370
                              -1
100
AcDbHatch
 10
0
 20
0
 210
0
 220
0
 230
1
  2
ANSI31
 70
     0
 71
     0
 91
       5
 92
       1
 93
       4
 72
     1
 10
20
 20
50
 11
80
 21
50
 72
     1
 10
80
 20
50
 11
80
 21
52
 72
     1
 10
80
 20
52
 11
20
 21
52
 72
     1
 10
20
 20
52
 11
20
 21
50
 97
       0
 92
       1
 93
       4
 72
     1
 10
20
 20
80
 11
20
 21
78
 72
     1
 10
20
 20
78
 11
150
 21
77.99999999999994
 72
     1
 10
150
 20
77.99999999999994
 11
150
 21
79.99999999999997
 72
     1
 10
150
 20
79.99999999999997
 11
20
 21
80
 97
       0
 92
       1
 93
       4
 72
     1
 10
170
 20
50
 11
260
 21
50
 72
     1
 10
260
 20
50
 11
260
 21
52
 72
     1
 10
260
 20
52
 11
170
 21
52
 72
     1
 10
170
 20
52
 11
170
 21
50
 97
       0
 92
       1
 93
       4
 72
     1
 10
170
 20
80
 11
170
 21
78
 72
     1
 10
170
 20
78
 11
260
 21
78.00000000000004
 72
     1
 10
260
 20
78.00000000000004
 11
260
 21
79.99999999999997
 72
     1
 10
260
 20
79.99999999999997
 11
170
 21
80
 97
       0
 92
       1
 93
       4
 72
     1
 10
90
 20
50
 11
150
 21
50
 72
     1
 10
150
 20
50
 11
150
 21
52
 72
     1
 10
150
 20
52
 11
90
 21
52
 72
     1
 10
90
 20
52
 11
90
 21
50
 97
       0
 75
     0
 76
     1
 52
0
 41
1
 77
     0
 78
     1
 53
45
 43
0
 44
0
 45
-2.245064030267288
 46
2.2450640302672884
 79
     0
 98
     1
 10
0
 20
0
  0
DIMENSION
  5
D0B
100
AcDbEntity
  8
Bemassung
  6
ByLayer
 62
   256
370
               -1
100
AcDbDimension
  2
*D3339
 10
10.000000000000002
 20
79.99999999999999
 30
0.0
 11
7.708375000000001
 21
65
 31
0.0
  70
    32
  1
Ø 30
  3
ISO-25
100
AcDbAlignedDimension
 13
19.999999999999993
 23
50
 33
0.0
 14
20
 24
79.99999999999999
 34
0.0
  50
90
100
AcDbRotatedDimension
1001
ACAD
1000
DSTYLE
1002
{
1002
}
  0
DIMENSION
  5
D4A
100
AcDbEntity
  8
Bemassung
  6
ByLayer
 62
   256
370
               -1
100
AcDbDimension
  2
*D3402
 10
90
 20
30
 30
0.0
 11
85
 21
32.291625
 31
0.0
  70
    32
  1
Ø 8
  3
ISO-25
100
AcDbAlignedDimension
 13
80
 23
50
 33
0.0
 14
90
 24
50
 34
0.0
  50
0
100
AcDbRotatedDimension
1001
ACAD
1000
DSTYLE
1002
{
1002
}
  0
DIMENSION
  5
D5F
100
AcDbEntity
  8
Bemassung
  6
ByLayer
 62
   256
370
               -1
100
AcDbDimension
  2
*D3423
 10
272
 20
95
 30
0.0
 11
269.708375
 21
65
 31
0.0
  70
    32
  1
Ø 60
  3
ISO-25
100
AcDbAlignedDimension
 13
262
 23
35
 33
0.0
 14
262
 24
95
 34
0.0
  50
90
100
AcDbRotatedDimension
1001
ACAD
1000
DSTYLE
1002
{
1002
}
  0
DIMENSION
  5
D74
100
AcDbEntity
  8
Bemassung
  6
ByLayer
 62
   256
370
               -1
100
AcDbDimension
  2
*D3444
 10
262
 20
103
 30
0.0
 11
268.4583333333333
 21
105.291625
 31
0.0
  70
    32
  1

  3
ISO-25
100
AcDbAlignedDimension
 13
260
 23
95
 33
0.0
 14
262
 24
95
 34
0.0
  50
0
100
AcDbRotatedDimension
1001
ACAD
1000
DSTYLE
1002
{
1002
}
  0
DIMENSION
  5
D89
100
AcDbEntity
  8
Bemassung
  6
ByLayer
 62
   256
370
               -1
100
AcDbDimension
  2
*D3465
 10
222
 20
78.00000000000003
 30
0.0
 11
219.708375
 21
65.00000000000001
 31
0.0
  70
    32
  1
Ø 26
  3
ISO-25
100
AcDbAlignedDimension
 13
215
 23
52
 33
0.0
 14
215
 24
78.00000000000003
 34
0.0
  50
90
100
AcDbRotatedDimension
1001
ACAD
1000
DSTYLE
1002
{
1002
}
  0
TEXT
  5
DB3
100
AcDbEntity
  8
Sichtbare Körperkanten
  6
ByLayer
 62
   256
370
               -1
100
AcDbText
 10
30
 20
101
 30
0.0
 40
5
  1
Rohr mit Bohrung und Plastikscheibe 
 50
0
 51
0
  7
Standard
 41
1
 71
     0
 72
     0
 11
30
 21
101
 31
0.0
100
AcDbText
 73
     0
  0
DIMENSION
  5
F09
100
AcDbEntity
  8
Bemassung
  6
ByLayer
 62
   256
370
            -1
100
AcDbDimension
  2
*D3849
 10
260
 20
20
 30
0.0
 11
140
 21
22.291625
 31
0.0
  70
    32
  1
2000
  3
ISO-25
100
AcDbAlignedDimension
 13
19.999999999999993
 23
50
 33
0.0
 14
260
 24
50
 34
0.0
  50
0
100
AcDbRotatedDimension
1001
ACAD
1000
DSTYLE
1002
{
1002
}
  0
LINE
  5
11B6
100
AcDbEntity
  8
Sichtbare Körperkanten
  6
ByLayer
 62
   256
370
      -1
100
AcDbLine
 10
80
 20
52
 30
0.0
 11
90
 21
52.00000000000001
 31
0.0
  0
LINE
  5
11B7
100
AcDbEntity
  8
Sichtbare Körperkanten
  6
ByLayer
 62
   256
370
      -1
100
AcDbLine
 10
90
 20
52.00000000000001
 30
0.0
 11
90
 21
50
 31
0.0
  0
LINE
  5
11B8
100
AcDbEntity
  8
Sichtbare Körperkanten
  6
ByLayer
 62
   256
370
      -1
100
AcDbLine
 10
90
 20
50
 30
0.0
 11
80
 21
50
 31
0.0
  0
ENDSEC
  0
SECTION
  2
OBJECTS
  0
DICTIONARY
  5
1281
330
0
100
AcDbDictionary
281
     1
  3
ACAD_COLOR
350
1282
  3
ACAD_GROUP
350
D
  3
ACAD_LAYOUT
350
1137
  3
ACAD_MATERIAL
350
1283
  3
ACAD_MLINESTYLE
350
17
  3
ACAD_PLOTSETTINGS
350
1285
  3
ACAD_PLOTSTYLENAME
350
1286
  3
AcDbVariableDictionary
350
1288
  0
DICTIONARY
  5
1282
102
{ACAD_REACTORS
330
1281
102
}
330
1281
100
AcDbDictionary
281
     1
  0
DICTIONARY
  5
D
102
{ACAD_REACTORS
330
1281
102
}
330
1281
100
AcDbDictionary
281
     1
  0
DICTIONARY
  5
1137
102
{ACAD_REACTORS
330
1281
102
}
330
1281
100
AcDbDictionary
281
     1
  3
Layout1
350
51
  3
Layout2
350
56
  3
Model
350
22
  0
DICTIONARY
  5
1283
102
{ACAD_REACTORS
330
1281
102
}
330
1281
100
AcDbDictionary
281
     1
  0
DICTIONARY
  5
17
102
{ACAD_REACTORS
330
1281
102
}
330
1281
100
AcDbDictionary
281
     1
  3
STANDARD
350
1284
  0
DICTIONARY
  5
1285
102
{ACAD_REACTORS
330
1281
102
}
330
1281
100
AcDbDictionary
281
     1
  0
ACDBDICTIONARYWDFLT
  5
1286
102
{ACAD_REACTORS
330
1281
102
}
330
1281
100
AcDbDictionary
281
     1
  3
Normal
350
128C
100
AcDbDictionaryWithDefault
340
128C
  0
DICTIONARY
  5
1288
102
{ACAD_REACTORS
330
1281
102
}
330
1281
100
AcDbDictionary
281
     1
  3
DIMASSOC
350
1289
  3
HIDETEXT
350
128A
  3
PROJECTNAME
350
128B
  0
LAYOUT
  5
51
102
{ACAD_REACTORS
330
1137
102
}
330
1137
100
AcDbPlotSettings
  1

  2
None
  4

  6

 40
0
 41
0
 42
0
 43
0
 44
0
 45
0
 46
0.0
 47
0.0
 48
0.0
 49
0.0
140
0.0
141
0.0
142
1.0
143
1.0
 70
   688
 72
     0
 73
     0
 74
     5
  7

 75
    16
147
1.0
148
0.0
149
0.0
100
AcDbLayout
  1
Layout1
 70
     1
 71
     0
 10
0
 20
0
 11
0
 21
0
 12
0.0
 22
0.0
 32
0.0
 14
0.0
 24
0.0
 34
0.0
 15
0.0
 25
0.0
 35
0.0
146
0.0
 13
0.0
 23
0.0
 33
0.0
 16
1.0
 26
0.0
 36
0.0
 17
0.0
 27
1.0
 37
0.0
 76
     0
330
50
  0
LAYOUT
  5
56
102
{ACAD_REACTORS
330
1137
102
}
330
1137
100
AcDbPlotSettings
  1

  2
None
  4

  6

 40
0
 41
0
 42
0
 43
0
 44
0
 45
0
 46
0.0
 47
0.0
 48
0.0
 49
0.0
140
0.0
141
0.0
142
1.0
143
1.0
 70
   688
 72
     0
 73
     0
 74
     5
  7

 75
    16
147
1.0
148
0.0
149
0.0
100
AcDbLayout
  1
Layout2
 70
     1
 71
     1
 10
0
 20
0
 11
0
 21
0
 12
0.0
 22
0.0
 32
0.0
 14
0.0
 24
0.0
 34
0.0
 15
0.0
 25
0.0
 35
0.0
146
0.0
 13
0.0
 23
0.0
 33
0.0
 16
1.0
 26
0.0
 36
0.0
 17
0.0
 27
1.0
 37
0.0
 76
     0
330
55
  0
LAYOUT
  5
22
102
{ACAD_REACTORS
330
1137
102
}
330
1137
100
AcDbPlotSettings
  1

  2
none_device
  4
ANSI_A_(8.50_x_11.00_Inches)
  6

 40
6.349999904632567
 41
19.04999923706055
 42
6.350006103515625
 43
19.04998779296875
 44
215.8999938964844
 45
279.3999938964844
 46
0.0
 47
0.0
 48
0.0
 49
0.0
140
0.0
141
0.0
142
1.0
143
1.0
 70
   688
 72
     0
 73
     1
 74
     5
  7

 75
    16
147
1.0
148
0.0
149
0.0
100
AcDbLayout
  1
Model
 70
     1
 71
     2
 10
-19.04998779296875
 20
-6.349999904632567
 11
260.3500061035156
 21
209.54999399185184
 12
0.0
 22
0.0
 32
0.0
 14
0.0
 24
0.0
 34
0.0
 15
0.0
 25
0.0
 35
0.0
146
0.0
 13
0.0
 23
0.0
 33
0.0
 16
1.0
 26
0.0
 36
0.0
 17
0.0
 27
1.0
 37
0.0
 76
     0
330
1F
  0
MLINESTYLE
  5
1284
102
{ACAD_REACTORS
330
17
102
}
330
17
100
AcDbMlineStyle
  2
STANDARD
 70
     0
  3

 62
   256
 51
90.0
 52
90.0
 71
     2
 49
0.5
 62
   256
  6
BYLAYER
 49
-0.5
 62
   256
  6
BYLAYER
  0
ACDBPLACEHOLDER
  5
128C
102
{ACAD_REACTORS
330
128C
102
}
330
128C
  0
DICTIONARYVAR
  5
1289
102
{ACAD_REACTORS
330
1288
102
}
330
1288
100
DictionaryVariables
280
     0
  1
2
  0
DICTIONARYVAR
  5
128A
102
{ACAD_REACTORS
330
1288
102
}
330
1288
100
DictionaryVariables
280
     0
  1
1
  0
DICTIONARYVAR
  5
128B
102
{ACAD_REACTORS
330
1288
102
}
330
1288
100
DictionaryVariables
280
     0
  1

  0
ENDSEC
  0
EOF